<?xml version="1.0" standalone="no"?>
<!DOCTYPE svg PUBLIC "-//W3C//DTD SVG 1.1//EN" "http://www.w3.org/Graphics/SVG/1.1/DTD/svg11.dtd" >
<svg xmlns="http://www.w3.org/2000/svg">
<metadata></metadata>
<defs>
<font id="soberana_sans_condensedRg" horiz-adv-x="962" >
<font-face units-per-em="2048" ascent="1577" descent="-471" />
<missing-glyph horiz-adv-x="368" />
<glyph horiz-adv-x="0" />
<glyph horiz-adv-x="682" />
<glyph unicode=" "  horiz-adv-x="368" />
<glyph unicode="&#x09;" horiz-adv-x="368" />
<glyph unicode="&#xa0;" horiz-adv-x="368" />
<glyph unicode="!" horiz-adv-x="534" d="M166 92q0 52 30 83.5t74 31.5q43 0 71 -31t28 -84q0 -52 -28 -80t-71 -28q-45 0 -74.5 27.5t-29.5 80.5zM170 1532l192 20l-28 -1155h-129z" />
<glyph unicode="&#x22;" horiz-adv-x="651" d="M115 1532l159 20l-36 -465h-91zM375 1532l160 20l-37 -465h-90z" />
<glyph unicode="#" d="M82 420v125h190l21 250h-182v125h192l35 391h111l-33 -391h170l35 391h110l-33 -391h181v-125h-191l-22 -250h184v-125h-195l-32 -400h-113l33 400h-170l-33 -400h-113l33 400h-178zM383 545h172l20 250h-169z" />
<glyph unicode="$" d="M137 104l29 164q136 -129 276 -129q105 0 157 61.5t52 176.5q0 59 -18.5 108t-56 89.5t-73 70.5t-90 71.5t-87.5 71.5q-44 41 -67 66.5t-51 67.5t-40 92t-12 114q0 168 87.5 260.5t233.5 100.5l27 268l135 -18l-25 -258q100 -21 174 -86l-34 -152q-111 92 -236 92 q-186 0 -186 -207q0 -53 21 -98t59.5 -82t78.5 -66.5t94.5 -69.5t90.5 -75q70 -67 107.5 -148t37.5 -202q0 -103 -27 -180.5t-75.5 -124t-109 -70t-134.5 -26.5l-18 -271l-138 17l21 264q-113 26 -203 108z" />
<glyph unicode="%" horiz-adv-x="1345" d="M94 1130q0 161 61.5 261t174.5 100q116 0 175.5 -98.5t59.5 -264.5q0 -174 -63 -266t-172 -92q-106 0 -171 93.5t-65 266.5zM211 1130q0 -118 30 -189t91 -71q58 0 88.5 68.5t30.5 189.5q0 122 -31.5 189t-87.5 67q-61 0 -91 -69.5t-30 -184.5zM315 31l605 1460l110 -47 l-604 -1460zM780 344q0 161 61.5 261t174.5 100q116 0 175.5 -98.5t59.5 -264.5q0 -174 -63 -266t-172 -92q-106 0 -171 93.5t-65 266.5zM897 344q0 -118 30 -189t91 -71q58 0 88.5 68.5t30.5 189.5q0 122 -31.5 189t-87.5 67q-61 0 -91 -69.5t-30 -184.5z" />
<glyph unicode="&#x26;" horiz-adv-x="1130" d="M74 383q0 264 205 465q-70 181 -70 326q0 170 78 274t207 104q73 0 142 -33.5t118 -80.5l-52 -142q-90 101 -190 101q-68 0 -107.5 -58t-39.5 -170q0 -139 98.5 -343.5t241.5 -389.5q95 220 147 424h156q-69 -263 -193 -534q22 -27 105 -119q29 -32 61.5 -55t54.5 -23h35 v-129q-27 -16 -72 -16q-93 0 -182 96q-61 66 -94 108q-138 -204 -320 -204q-103 0 -179 55.5t-113 144.5t-37 199zM231 385q0 -107 42 -179.5t126 -72.5q53 0 113 39.5t106 120.5q-161 214 -266 420q-121 -130 -121 -328z" />
<glyph unicode="'" horiz-adv-x="387" d="M115 1532l159 20l-36 -465h-91z" />
<glyph unicode="(" horiz-adv-x="651" d="M111 686q0 323 111 561.5t306 333.5v-164q-252 -217 -252 -731q0 -506 252 -733v-162q-195 95 -306 332.5t-111 562.5z" />
<glyph unicode=")" horiz-adv-x="651" d="M123 -47q252 227 252 733q0 514 -252 731v164q195 -95 306.5 -334t111.5 -561q0 -325 -111.5 -562.5t-306.5 -332.5v162z" />
<glyph unicode="*" horiz-adv-x="671" d="M94 1036l193 115l-193 113l74 114l141 -170l-30 295h114l-28 -295l139 172l74 -116l-191 -113l191 -115l-74 -112l-139 172l28 -295h-114l30 295l-141 -172z" />
<glyph unicode="+" d="M125 590v133h289v467h135v-467h287v-133h-287v-467h-135v467h-289z" />
<glyph unicode="," horiz-adv-x="413" d="M86 -217q78 108 78 221q0 94 -68 189l148 40q65 -84 65 -186q0 -151 -119 -293z" />
<glyph unicode="-" horiz-adv-x="610" d="M61 475v131l488 43v-131z" />
<glyph unicode="." horiz-adv-x="413" d="M102 109q0 54 29 88t74 34q51 0 78.5 -33t27.5 -89q0 -57 -27.5 -91t-80.5 -34q-46 0 -73.5 34.5t-27.5 90.5z" />
<glyph unicode="/" horiz-adv-x="849" d="M78 -41l561 1659l131 -43l-561 -1659z" />
<glyph unicode="0" d="M96 739q0 225 42.5 392.5t130.5 263.5t212 96q187 0 285 -201t98 -547q0 -375 -101 -567t-282 -192t-283 193t-102 562zM268 735q0 -176 22 -303.5t70.5 -201.5t120.5 -74q104 0 157.5 151.5t53.5 433.5q0 280 -54 429t-157 149q-72 0 -120.5 -75t-70.5 -203.5 t-22 -305.5z" />
<glyph unicode="1" d="M190 0v147h234v1125l-234 -23v121q166 24 345 105h59v-1328h217v-147h-621z" />
<glyph unicode="2" d="M135 102q116 147 195.5 261.5t146.5 239t100 242.5t33 234q0 49 -8 90.5t-27 79t-55.5 59t-87.5 21.5q-130 0 -231 -131l-54 145q50 64 133.5 106t184.5 42q145 0 236.5 -104.5t91.5 -315.5q0 -381 -418 -913v-11h450v-147h-673z" />
<glyph unicode="3" d="M131 123l47 156q52 -59 125.5 -97.5t140.5 -38.5q90 0 141.5 78t51.5 217q0 134 -76 209.5t-215 75.5v108q48 19 89.5 45.5t80.5 65t61.5 92.5t22.5 117q0 93 -38.5 137.5t-102.5 44.5q-69 0 -140 -39.5t-112 -109.5l-49 143q63 78 144.5 121t172.5 43q133 0 218 -87.5 t85 -250.5q0 -118 -50.5 -201t-135.5 -129v-12q98 -39 159.5 -133t61.5 -244q0 -216 -104 -333t-258 -117q-88 0 -174 35t-146 104z" />
<glyph unicode="4" d="M94 381v123q363 687 533 977l106 -23v-930h119l-16 -147h-103v-381h-158v381h-481zM272 541l2 -13h304v433l4 178l-9 4l-77 -162q-8 -17 -93.5 -180.5t-130.5 -259.5z" />
<glyph unicode="5" d="M131 123l45 158q123 -138 254 -138q92 0 150.5 68.5t58.5 206.5q0 170 -104.5 255.5t-348.5 117.5q39 324 60 684h536v-154h-383q-10 -211 -28 -395q103 -23 181 -61.5t138 -98t91.5 -147t31.5 -199.5q0 -208 -108 -322t-279 -114q-173 0 -295 139z" />
<glyph unicode="6" d="M131 578q0 146 39.5 289.5t112.5 266.5t184 218t246 139l37 -148q-113 -44 -203 -130.5t-144 -189t-84 -222.5l11 -4q85 94 202 94q141 0 219 -117t78 -330q0 -113 -29 -202.5t-77.5 -144.5t-109.5 -84t-128 -29q-166 0 -260 160t-94 434zM295 584q0 -122 19 -221 t63 -164.5t108 -65.5q84 0 132.5 85.5t48.5 215.5q0 314 -164 314q-121 0 -207 -132v-32z" />
<glyph unicode="7" d="M137 1317v158h674l29 -64q-17 -41 -209.5 -669.5t-224.5 -741.5h-191q431 1255 447 1317h-525z" />
<glyph unicode="8" d="M139 387q0 134 56 234.5t147 160.5q-80 67 -126 146.5t-46 199.5q0 168 83.5 265.5t229.5 97.5q151 0 230.5 -98.5t79.5 -264.5q0 -121 -45 -200t-125 -146q200 -137 200 -399q0 -171 -93 -285t-247 -114q-161 0 -252.5 113.5t-91.5 289.5zM307 383q0 -114 48 -181 t128 -67q81 0 126.5 70t45.5 180q0 222 -176 317q-172 -99 -172 -319zM330 1128q0 -71 38 -144t115 -122q152 120 152 268q0 104 -41.5 157.5t-108.5 53.5q-155 0 -155 -213z" />
<glyph unicode="9" d="M127 1018q0 113 30 204.5t80 149t112.5 88.5t129.5 31q163 0 253.5 -162t90.5 -424q0 -146 -36.5 -285.5t-106.5 -261t-178.5 -219.5t-245.5 -155l-37 149q152 82 271.5 225t156.5 334l-6 6q-44 -48 -104.5 -76t-126.5 -28q-91 0 -156 57t-96 151.5t-31 215.5zM293 1026 q0 -136 41 -209.5t121 -73.5q55 0 114 36.5t93 90.5q2 12 2 39q0 119 -20.5 215t-65 155.5t-105.5 59.5q-87 0 -133.5 -87.5t-46.5 -225.5z" />
<glyph unicode=":" horiz-adv-x="413" d="M102 109q0 54 29 88t74 34q51 0 78.5 -33t27.5 -89q0 -57 -27.5 -91t-80.5 -34q-46 0 -73.5 34.5t-27.5 90.5zM102 729q0 54 29.5 88.5t73.5 34.5q51 0 78.5 -33.5t27.5 -89.5q0 -57 -27.5 -91t-80.5 -34q-46 0 -73.5 34.5t-27.5 90.5z" />
<glyph unicode=";" horiz-adv-x="413" d="M86 -217q78 108 78 221q0 94 -68 189l148 40q65 -84 65 -186q0 -151 -119 -293zM102 729q0 54 29.5 88.5t73.5 34.5q51 0 78.5 -33.5t27.5 -89.5q0 -57 -27.5 -91t-80.5 -34q-46 0 -73.5 34.5t-27.5 90.5z" />
<glyph unicode="&#x3c;" d="M147 600v113l654 450v-149l-502 -361l502 -350v-151z" />
<glyph unicode="=" d="M125 410v131h711v-131h-711zM125 770v133h711v-133h-711z" />
<glyph unicode="&#x3e;" d="M162 152v151l502 350l-502 361v149l653 -450v-113z" />
<glyph unicode="?" horiz-adv-x="735" d="M94 1468q108 84 234 84q141 0 222 -97t81 -257q0 -89 -27.5 -166.5t-66.5 -133t-78 -107t-66.5 -112.5t-27.5 -126q0 -63 26 -154h-147q-33 89 -33 174q0 80 26 152.5t63 126.5t74 105.5t63 113.5t26 127q0 106 -41 155.5t-109 49.5q-41 0 -88.5 -17t-79.5 -47zM221 92 q0 52 30.5 83.5t74.5 31.5q42 0 70 -31t28 -84q0 -52 -27.5 -80t-70.5 -28q-46 0 -75.5 27.5t-29.5 80.5z" />
<glyph unicode="@" horiz-adv-x="1208" d="M94 483q0 387 161.5 619.5t430.5 234.5q70 0 131.5 -20t116.5 -65t94.5 -113t62.5 -171t23 -231q0 -157 -39 -287.5t-113 -209t-169 -78.5q-47 0 -76.5 26.5t-36.5 92.5l-8 2q-71 -109 -162 -109q-84 0 -127 89.5t-43 223.5q0 133 30 240t96.5 175.5t160.5 68.5 q76 0 145 -62l31 49h45q-62 -542 -62 -614q0 -63 41 -63q77 0 132 128t55 326q0 256 -87 382t-245 126q-146 -1 -257.5 -102t-169.5 -272.5t-58 -385.5q0 -287 108 -454.5t283 -167.5q94 0 191.5 47t168.5 133l43 -78q-83 -97 -189.5 -148t-215.5 -51q-218 0 -355 190 t-137 529zM461 496q0 -201 78 -201q63 0 137 115l41 399q-40 49 -88 49q-54 0 -92.5 -50t-57 -130.5t-18.5 -181.5z" />
<glyph unicode="A" horiz-adv-x="1103" d="M66 0q23 86 118 442.5t178 662t121 431.5h135q4 -19 205.5 -755.5t214.5 -780.5h-180q-9 38 -30.5 122t-51 196.5t-43.5 166.5h-368q0 -2 -29.5 -123t-59 -241t-28.5 -121h-182zM397 633h299q-1 11 -112 481l-33 148h-10q0 -7 -31 -150z" />
<glyph unicode="B" horiz-adv-x="921" d="M131 0v1536h303q342 0 342 -381q0 -115 -42.5 -195t-115.5 -122v-13q102 -35 163 -130.5t61 -256.5q0 -196 -92.5 -317t-268.5 -121h-350zM301 143h156q100 0 153.5 85.5t53.5 217.5q0 291 -242 291h-121v-594zM301 877h100q87 0 142 73t55 193q0 118 -46.5 184 t-133.5 66h-117v-516z" />
<glyph unicode="C" horiz-adv-x="1021" d="M88 752q0 199 40.5 354t112.5 251.5t166.5 145.5t206.5 49q185 0 308 -110l-33 -160q-120 111 -264 111q-163 0 -258 -163t-95 -474q0 -298 99 -452t262 -154q70 0 147 26t135 70l19 -156q-128 -106 -313 -106q-83 0 -159 27t-145 87t-119.5 147.5t-80 217.5t-29.5 289z " />
<glyph unicode="D" horiz-adv-x="1120" d="M131 0v1536h358q140 0 244.5 -55.5t168 -159t94 -241t30.5 -310.5q0 -132 -19.5 -247.5t-61 -212t-102.5 -165t-146.5 -107t-190.5 -38.5h-375zM301 154h186q93 0 163 49.5t111 136.5t61 195t20 235q0 293 -93.5 452.5t-271.5 159.5h-176v-1228z" />
<glyph unicode="E" horiz-adv-x="798" d="M131 0v1536h565v-154h-393v-532h301l-18 -148h-283v-548h404v-154h-576z" />
<glyph unicode="F" horiz-adv-x="772" d="M131 0v1536h571v-154h-399v-536h322l-15 -150h-307v-696h-172z" />
<glyph unicode="G" horiz-adv-x="1122" d="M94 754q0 162 28 295t78 225.5t120 155.5t153 92.5t178 29.5q90 0 180 -29.5t150 -82.5l-31 -160q-60 51 -142.5 82t-158.5 31q-169 0 -269.5 -161t-100.5 -474q0 -289 104 -451t270 -162q103 0 183 54v413h-115v136h285v-644q-71 -62 -170 -91t-197 -29q-239 0 -392 205 t-153 565z" />
<glyph unicode="H" horiz-adv-x="1140" d="M131 0v1536h170v-651h539v651h170v-1536h-170v729h-539v-729h-170z" />
<glyph unicode="I" horiz-adv-x="432" d="M131 0v1536h170v-1536h-170z" />
<glyph unicode="J" horiz-adv-x="638" d="M80 152q44 -17 98 -17q86 0 125 63.5t39 213.5v974h-125v150h299v-1124q0 -119 -21.5 -204t-62 -133t-91.5 -69.5t-118 -21.5q-65 0 -129 20z" />
<glyph unicode="K" horiz-adv-x="1003" d="M131 0v1536h170v-649h123q135 272 287 649h190q-129 -313 -332 -719q152 -420 267 -622q24 -42 48 -57t60 -15v-121q-56 -18 -92 -18q-51 0 -82.5 20.5t-64.5 71.5q-37 57 -134 277t-153 380h-117v-733h-170z" />
<glyph unicode="L" horiz-adv-x="792" d="M131 0v1536h172v-1382h410v-154h-582z" />
<glyph unicode="M" horiz-adv-x="1370" d="M117 0l30 1536h181q95 -270 193.5 -577.5t142.5 -466.5l22 -89h8l21 89q10 35 72.5 244t121.5 413t109 387h192l43 -1536h-161l-23 1040l2 140h-8l-39 -140l-287 -923q-4 0 -50 -5.5t-50 -5.5l-299 932l-47 164h-8l6 -164l-10 -1038h-162z" />
<glyph unicode="N" horiz-adv-x="1173" d="M131 0v1536h150q210 -370 538 -1010l51 -112l11 2l-7 121l-2 999h170v-1536l-106 -16q-542 1020 -576 1083l-63 139h-8l4 -147l4 -1059h-166z" />
<glyph unicode="O" horiz-adv-x="1191" d="M94 772q0 229 53.5 402t169 275.5t281.5 102.5q124 0 220.5 -59t157 -164t91.5 -244.5t31 -306.5q0 -237 -56.5 -414t-170.5 -278.5t-275 -101.5q-163 0 -277.5 102.5t-169.5 278t-55 407.5zM276 772q0 -187 34.5 -327t107 -222t176.5 -82q155 0 238 167.5t83 469.5 q0 287 -83 453t-238 166q-104 0 -176.5 -81.5t-107 -220.5t-34.5 -323z" />
<glyph unicode="P" horiz-adv-x="894" d="M131 0v1536h307q178 0 278.5 -116.5t100.5 -327.5q0 -225 -104 -354.5t-314 -129.5q-34 0 -96 8v-616h-172zM303 772q33 -8 84 -8q130 0 193 72.5t63 250.5q0 295 -221 295h-119v-610z" />
<glyph unicode="Q" horiz-adv-x="1193" d="M94 772q0 229 53.5 402t169 275.5t281.5 102.5q124 0 220.5 -59t157 -164t91.5 -244.5t31 -306.5q0 -321 -101 -525.5t-282 -248.5q70 -80 159.5 -131t174.5 -51q17 0 67 6v-125q-73 -25 -123 -25q-123 0 -257 92.5t-244 223.5q-176 35 -287 237.5t-111 540.5zM276 772 q0 -187 34.5 -327t107 -222t176.5 -82q155 0 238 167.5t83 469.5q0 287 -83 453t-238 166q-104 0 -176.5 -81.5t-107 -220.5t-34.5 -323z" />
<glyph unicode="R" horiz-adv-x="968" d="M131 0v1536h301q175 0 270 -110t95 -322q0 -149 -44.5 -245.5t-140.5 -158.5q103 -305 197 -499q22 -45 41 -59.5t47 -14.5h18v-125q-56 -18 -90 -18q-45 0 -75 17t-58 58q-31 51 -103 229t-136 359h-152v-647h-170zM301 797h92q228 0 228 301q0 142 -54 213t-155 71 h-111v-585z" />
<glyph unicode="S" horiz-adv-x="872" d="M88 104l29 164q136 -129 276 -129q104 0 156.5 66t52.5 182q0 59 -18.5 109t-56.5 92.5t-73 73t-90.5 74.5t-87.5 73q-80 75 -125 161t-45 208q0 178 98 276t257 98q171 0 278 -96l-34 -151q-111 92 -236 92q-84 0 -135 -53t-51 -166q0 -54 20.5 -101.5t60 -89 t78.5 -74.5t95 -77.5t90 -77.5q145 -138 145 -361q0 -107 -29.5 -188.5t-81 -129.5t-117 -71.5t-143.5 -23.5q-179 0 -313 120z" />
<glyph unicode="T" horiz-adv-x="1024" d="M80 1382v154h862v-154h-344v-1382h-172v1382h-346z" />
<glyph unicode="U" horiz-adv-x="1110" d="M115 621v915h172v-911q0 -252 73.5 -367t194.5 -115q44 0 81 13t72.5 46t60 85.5t39.5 136.5t15 194v918h172v-924q0 -166 -34 -289.5t-96 -196t-139.5 -107.5t-172.5 -35q-76 0 -140.5 22t-120 70.5t-94.5 121.5t-61 180.5t-22 242.5z" />
<glyph unicode="V" horiz-adv-x="1042" d="M59 1536h183q94 -450 241 -1083l35 -185l12 2l31 179l244 1087h180q-7 -26 -108.5 -436.5t-175 -699.5t-105.5 -400h-154q-59 216 -190 739.5t-193 796.5z" />
<glyph unicode="W" horiz-adv-x="1572" d="M63 1536h181q72 -388 221 -1077l24 -162h9q17 66 39 164l184 762q-4 18 -19 69q-18 69 -34 90t-47 23v125q46 8 84 8q57 0 90.5 -32.5t56.5 -127.5q177 -772 203 -903l28 -178h9l28 178l211 1061h176q-56 -277 -177 -822.5t-169 -713.5h-153q-83 333 -179 795l-26 145h-6 q-4 -16 -14 -66.5t-17 -76.5l-205 -797h-149q-53 202 -170.5 722t-178.5 814z" />
<glyph unicode="X" horiz-adv-x="1058" d="M59 0q42 93 167.5 373.5t189.5 419.5q-5 9 -102.5 255t-98.5 248q-23 56 -48.5 80.5t-60.5 24.5v129q30 10 80 10q58 0 97 -35.5t75 -124.5q10 -25 80 -212t90 -234h9q21 44 47.5 108.5t47.5 119t66.5 174t77.5 200.5h187q-198 -481 -320 -745q17 -40 67 -162.5 t95.5 -231t79.5 -180.5q22 -47 46.5 -69.5t63.5 -22.5v-123q-14 -6 -43.5 -12t-46.5 -6q-48 0 -80.5 19.5t-58.5 72.5q-19 37 -98.5 230t-141.5 353h-8q-23 -55 -63 -155t-99.5 -247.5t-103.5 -256.5h-193z" />
<glyph unicode="Y" horiz-adv-x="970" d="M59 1399v131q27 8 66 8q58 0 98.5 -35t75.5 -127l186 -495h9q78 196 231 655h184q-89 -238 -342 -834v-702h-170v702q-24 59 -79.5 200t-97 245.5t-62.5 152.5q-24 52 -45.5 75.5t-53.5 23.5z" />
<glyph unicode="Z" horiz-adv-x="993" d="M82 0v70q150 375 575 1300l-2 12h-532v154h747l27 -72q-36 -79 -136 -295t-154.5 -335.5t-138.5 -310t-153 -357.5v-12h592v-154h-825z" />
<glyph unicode="[" horiz-adv-x="657" d="M180 -203v1776h342v-154h-182v-1470h182v-152h-342z" />
<glyph unicode="\" horiz-adv-x="849" d="M78 1575l131 43l561 -1659l-131 -43z" />
<glyph unicode="]" horiz-adv-x="657" d="M135 -51h182v1470h-182v154h342v-1776h-342v152z" />
<glyph unicode="^" d="M133 571l291 912h113l292 -912h-129l-219 729l-217 -729h-131z" />
<glyph unicode="_" d="M-20 -276h1003v-146h-1003v146z" />
<glyph unicode="`" horiz-adv-x="686" d="M186 1657l133 74l183 -426l-72 -41z" />
<glyph unicode="a" horiz-adv-x="876" d="M88 305q0 110 42 167t134 91q46 17 151 51.5t144 49.5v84q0 119 -35.5 176t-113.5 57q-127 0 -248 -100l-37 125q63 56 140.5 85t150.5 29q51 0 92.5 -8.5t83.5 -33t70 -65t45.5 -109.5t17.5 -161v-534q0 -38 8 -60t33 -22q15 0 47 4l6 -106q-74 -41 -133 -41 q-54 0 -82 34.5t-37 108.5l-8 4q-68 -80 -116.5 -113.5t-112.5 -33.5q-97 0 -169.5 90.5t-72.5 230.5zM256 313q0 -85 32 -138.5t83 -53.5q42 0 94 41.5t94 111.5v275q-162 -58 -217 -82q-42 -21 -64 -53.5t-22 -100.5z" />
<glyph unicode="b" horiz-adv-x="903" d="M125 0v1577h164v-375l-6 -229l8 -2q47 67 98 108t121 41q97 0 167.5 -76.5t104 -198.5t33.5 -272q0 -284 -89.5 -436.5t-270.5 -152.5q-142 0 -252 71l-29 -55h-49zM289 174q66 -55 147 -55q57 0 98.5 34.5t65.5 97t35.5 140t11.5 172.5q0 181 -45.5 295.5t-122.5 114.5 q-101 0 -190 -162v-637z" />
<glyph unicode="c" horiz-adv-x="774" d="M94 537q0 101 9.5 183.5t34.5 159t64.5 128t102 82t144.5 30.5q59 0 125 -17.5t110 -47.5l-27 -148q-39 27 -94 45.5t-98 18.5q-107 0 -155 -104t-48 -326q0 -192 53.5 -301t163.5 -109q93 0 201 57l20 -135q-46 -31 -113.5 -50t-135.5 -19q-167 0 -262 139.5t-95 413.5z " />
<glyph unicode="d" horiz-adv-x="899" d="M88 532q0 285 94.5 436.5t259.5 151.5q90 0 170 -43v500h162v-1577h-125l-22 137l-9 2q-51 -71 -104.5 -113t-126.5 -42q-96 0 -165 77t-101.5 199t-32.5 272zM254 543q0 -183 47.5 -299.5t120.5 -116.5q54 0 103.5 46t86.5 118v637q-71 53 -147 53q-57 0 -99 -35 t-66 -98t-35 -138.5t-11 -166.5z" />
<glyph unicode="e" horiz-adv-x="849" d="M94 535q0 125 20 225.5t53.5 166.5t81 110.5t99.5 63.5t111 19q159 0 236 -121t77 -337q0 -55 -2 -84h-510v-50q0 -204 67.5 -302.5t176.5 -98.5q56 0 118.5 17.5t110.5 45.5l19 -133q-117 -73 -267 -73q-79 0 -147 31t-124 94.5t-88 172.5t-32 253zM268 690h346 q0 154 -41.5 227.5t-113.5 73.5q-76 0 -128 -74t-63 -227z" />
<glyph unicode="f" horiz-adv-x="593" d="M63 969v135h119v113q0 106 18 179t53.5 112.5t79 56t103.5 16.5q101 0 178 -41l-24 -135q-24 14 -61.5 24.5t-65.5 10.5q-69 0 -93 -50t-24 -176v-110h203l-14 -135h-189v-969h-166v969h-117z" />
<glyph unicode="g" horiz-adv-x="907" d="M66 -190q0 51 11.5 92.5t36 74t41.5 49t48 42.5v10q-49 25 -70.5 65.5t-21.5 79.5q0 83 45.5 142t109.5 92v12q-72 34 -113.5 113.5t-41.5 181.5q0 168 84.5 262t230.5 94q160 0 229 -112h15q2 62 17 91t63 29q54 0 100 -22l-10 -111q-31 6 -64 6q-17 0 -29 -7t-18 -16 t-9.5 -29t-4.5 -34.5t-2 -44.5q10 -55 10 -108q0 -166 -84.5 -253t-228.5 -87q-13 0 -29 2q-46 -22 -86.5 -69t-40.5 -105q0 -43 25 -61.5t61 -18.5h229q131 0 202 -69t71 -210q0 -81 -26.5 -145.5t-69 -104.5t-99.5 -66t-113 -36t-114 -10q-41 0 -82.5 6t-92 24.5t-89 47.5 t-64.5 82t-26 121zM231 -166q0 -52 18 -88.5t48.5 -55t63 -26.5t69.5 -8q41 0 81 12t77.5 37t60.5 71.5t23 108.5q0 158 -137 158h-166q-44 -10 -91 -66.5t-47 -142.5zM274 764q0 -91 36 -157t104 -66q73 0 115 59.5t42 165.5q0 114 -37 173.5t-108 59.5q-74 0 -113 -60.5 t-39 -174.5z" />
<glyph unicode="h" horiz-adv-x="890" d="M125 0v1577h164v-375l-4 -241l8 -3q54 88 110.5 125t128.5 37q252 0 252 -422v-698h-166v676q0 163 -31.5 228t-107.5 65q-58 0 -108 -46t-82 -120v-803h-164z" />
<glyph unicode="i" horiz-adv-x="401" d="M100 1470q0 51 28 84t71 33q48 0 75 -32.5t27 -84.5q0 -54 -27 -86t-77 -32q-43 0 -70 33t-27 85zM117 0v1104h168v-1104h-168z" />
<glyph unicode="j" horiz-adv-x="473" d="M29 -313q30 -15 63 -15q56 0 74 57.5t18 186.5v1053h-102v135h268v-1198q0 -74 -6 -129.5t-22 -103.5t-42 -78.5t-67 -48t-96 -17.5q-48 0 -78 10zM152 1470q0 51 27.5 84t70.5 33q48 0 75 -32.5t27 -84.5q0 -54 -27 -86t-77 -32q-43 0 -69.5 32.5t-26.5 85.5z" />
<glyph unicode="k" horiz-adv-x="880" d="M125 0v1577h164v-870h98q50 80 203 397h178q-88 -183 -244 -451q19 -60 84 -227t97 -233q17 -37 33.5 -55.5t39.5 -18.5q15 0 33 2v-117q-44 -20 -92 -20q-89 0 -158 137q-21 41 -80.5 196t-87.5 244h-104v-561h-164z" />
<glyph unicode="l" horiz-adv-x="413" d="M125 0v1577h164v-1577h-164z" />
<glyph unicode="m" horiz-adv-x="1370" d="M125 0v1106h135l19 -145l10 -3q58 89 116.5 125.5t133.5 36.5t123.5 -42.5t78.5 -127.5h11q114 170 264 170q248 0 248 -387v-733h-164v721q0 132 -30 191t-97 59q-56 0 -109.5 -44.5t-87.5 -117.5v-809h-164v717q0 133 -28.5 193.5t-102.5 60.5q-56 0 -107 -44.5 t-85 -121.5v-805h-164z" />
<glyph unicode="n" horiz-adv-x="890" d="M125 0v1106h135l21 -143l10 -2q115 159 248 159q118 0 181.5 -105t63.5 -296v-719h-166v694q0 140 -33.5 200t-101.5 60q-56 0 -106.5 -40t-87.5 -107v-807h-164z" />
<glyph unicode="o" horiz-adv-x="917" d="M94 549q0 278 94 424.5t273 146.5q177 0 269.5 -147.5t92.5 -421.5q0 -284 -97 -425.5t-267 -141.5q-168 0 -266.5 140t-98.5 425zM264 547q0 -208 51 -315t144 -107q95 0 144.5 107t49.5 319q0 428 -192 428q-197 0 -197 -432z" />
<glyph unicode="p" horiz-adv-x="899" d="M125 -471v1575h123l22 -139l11 -2q45 72 99 114.5t130 42.5q95 0 164.5 -74.5t103 -196.5t33.5 -276q0 -289 -94 -439t-260 -150q-90 0 -172 47v-502h-160zM285 178q29 -26 69.5 -41.5t75.5 -15.5q59 0 101.5 36t66 99.5t34.5 139.5t11 167q0 200 -46 307t-122 107 q-56 0 -105 -43.5t-85 -122.5v-633z" />
<glyph unicode="q" horiz-adv-x="903" d="M88 530q0 287 91.5 438.5t273.5 151.5q128 0 239 -73l33 57h53v-1573h-164v379l7 221l-11 2q-26 -35 -43 -55t-45 -45t-61 -37t-72 -12q-96 0 -165.5 77t-102.5 198.5t-33 270.5zM254 543q0 -186 47 -301t123 -115q102 0 190 164v635q-54 59 -147 59q-57 0 -99 -34 t-66.5 -95.5t-36 -139t-11.5 -173.5z" />
<glyph unicode="r" horiz-adv-x="630" d="M125 0v1106h127l24 -158h11q126 172 209 172q56 0 86 -67l-37 -135q-34 24 -70 24q-43 0 -93.5 -48.5t-92.5 -111.5v-782h-164z" />
<glyph unicode="s" horiz-adv-x="751" d="M88 68l18 129q50 -34 114 -57t122 -23q70 0 118 46.5t48 143.5q0 47 -22.5 82t-59 57t-80 42.5t-87 45.5t-80 57.5t-59 87.5t-22.5 128q0 147 84.5 230t223.5 83q66 0 129.5 -18.5t101.5 -42.5l-31 -135q-96 61 -192 61q-65 0 -109.5 -42.5t-44.5 -129.5q0 -43 22.5 -75 t58 -54t78.5 -42t86 -46.5t78.5 -61t58 -91.5t22.5 -132q0 -168 -88 -247.5t-230 -79.5q-70 0 -145 25.5t-113 58.5z" />
<glyph unicode="t" horiz-adv-x="671" d="M53 969v135h125l37 256h123v-256h235l-14 -135h-219v-670q0 -84 19.5 -124t72.5 -40q71 0 150 51l20 -143q-102 -59 -209 -59q-114 0 -165.5 76t-51.5 233v676h-123z" />
<glyph unicode="u" horiz-adv-x="897" d="M111 385v719h163v-694q0 -151 30 -216t99 -65q61 0 114.5 43.5t90.5 106.5v825h164v-1104h-125l-26 131l-13 4q-117 -151 -243 -151q-120 0 -187 101t-67 300z" />
<glyph unicode="v" horiz-adv-x="839" d="M59 1104h170q12 -51 67 -288t85 -370l35 -180h10q3 14 15.5 80.5t19.5 97.5l149 660h168l-299 -1104h-121q-22 94 -142.5 529.5t-156.5 574.5z" />
<glyph unicode="w" horiz-adv-x="1206" d="M59 1104h160q77 -388 121 -645l29 -209h10q7 25 20.5 92.5t24.5 108.5l121 446q-12 56 -23.5 75t-32.5 21v113q40 4 66 4q54 0 80 -32.5t45 -121.5q13 -64 57.5 -250t63.5 -278l26 -168h9q5 24 14 85t14 85l129 674h152q-47 -238 -135 -610.5t-121 -493.5h-123 q-10 62 -59.5 262.5t-65.5 276.5l-29 151h-10q-5 -21 -16.5 -78.5t-16.5 -79.5l-141 -532h-113q-129 525 -256 1104z" />
<glyph unicode="x" horiz-adv-x="901" d="M74 0q124 293 262 575q-47 120 -139 330q-19 42 -43.5 62t-47.5 20v119q54 4 70 4q56 0 89 -27.5t71 -113.5q25 -56 63.5 -153.5t49.5 -123.5h10q64 130 168 412h174q-108 -272 -234 -518q17 -43 43.5 -110t38.5 -96.5t33 -77t45 -97.5q41 -83 96 -86v-119q-36 -8 -75 -8 q-53 0 -85.5 30t-72.5 115q-25 53 -137 330h-9q-51 -113 -192 -467h-178z" />
<glyph unicode="y" horiz-adv-x="884" d="M59 987v117q24 4 70 4q62 0 94.5 -33t55.5 -121q24 -98 161 -759h9q30 111 70.5 289t85 386.5t50.5 233.5h168q-69 -287 -202 -804.5t-207 -770.5h-181q89 266 146 471h-41q-14 61 -51.5 228.5t-63 279t-55 232.5t-45.5 171q-12 41 -24 58t-40 18z" />
<glyph unicode="z" horiz-adv-x="804" d="M88 0v68q19 40 422 888l-2 11h-404v137h588l21 -76q-72 -157 -218 -468t-190 -410l2 -9h410v-141h-629z" />
<glyph unicode="{" horiz-adv-x="712" d="M94 618v134q81 20 110 70t29 165v301q0 159 58.5 222t179.5 63h107v-152h-58q-37 0 -56 -3.5t-37 -17t-25 -44t-7 -82.5v-301q0 -117 -33.5 -185t-107.5 -100v-6q74 -34 107.5 -100.5t33.5 -184.5v-315q0 -85 27.5 -109t97.5 -24h58v-152h-111q-119 0 -176.5 65.5 t-57.5 223.5v295q0 118 -29 167.5t-110 69.5z" />
<glyph unicode="|" horiz-adv-x="567" d="M211 -307v2150h145v-2150h-145z" />
<glyph unicode="}" horiz-adv-x="712" d="M135 -51h58q70 0 97 24t27 109v315q0 117 34 184t108 101v6q-74 32 -108 100t-34 185v301q0 52 -6.5 82.5t-25 44t-37 17t-55.5 3.5h-58v152h107q120 0 178.5 -63t58.5 -222v-301q0 -115 29 -165t110 -70v-134q-81 -20 -110 -69.5t-29 -167.5v-295q0 -159 -57 -224 t-176 -65h-111v152z" />
<glyph unicode="~" d="M145 528q0 137 47.5 200t118.5 63q37 0 85 -18t86.5 -39.5t81 -39.5t69.5 -18q35 0 56.5 29.5t21.5 91.5h106q0 -137 -47.5 -199.5t-118.5 -62.5q-46 0 -109 28.5t-121 57t-91 28.5q-35 0 -56.5 -29.5t-21.5 -91.5h-107z" />
<glyph unicode="&#xa1;" horiz-adv-x="534" d="M166 1059q0 52 27.5 80t70.5 28q46 0 75.5 -27.5t29.5 -80.5q0 -52 -30.5 -83.5t-74.5 -31.5q-42 0 -70 31t-28 84zM172 -401l29 1155h129l35 -1135z" />
<glyph unicode="&#xa2;" d="M154 737q0 136 20.5 251t63 209t115 149.5t169.5 60.5l23 266l135 -12l-23 -268q88 -20 160 -70l-29 -158q-42 33 -101 58.5t-112 25.5q-117 0 -178 -130.5t-61 -377.5q0 -235 65 -352t174 -117q51 0 114.5 23t109.5 51l24 -149q-44 -33 -122 -58t-154 -26l-23 -265 l-135 11l23 278q-121 51 -189.5 205.5t-68.5 394.5z" />
<glyph unicode="&#xa3;" d="M162 0v88q81 29 122.5 111t41.5 204q0 36 -4 86h-148v121h137l-16 164h-121v121h113q-6 93 -6 117q0 236 93.5 357.5t246.5 121.5q108 0 192 -49l-29 -129q-68 35 -139 35q-201 0 -201 -332q0 -6 7 -121h294v-121h-284l14 -164h270v-121h-262v-59q0 -80 -19.5 -164.5 t-51.5 -126.5h430v-139h-680z" />
<glyph unicode="&#xa4;" d="M86 248l119 182q-53 125 -53 285q0 173 53 291l-119 180l96 78l101 -148q88 88 200 88q117 0 199 -88l98 148l97 -80l-119 -176q55 -116 55 -289q0 -178 -53 -293l117 -176l-99 -78l-96 145q-82 -88 -199 -88q-115 0 -200 88l-101 -147zM274 715q0 -156 56.5 -254.5 t152.5 -98.5q100 0 153.5 103t53.5 256q0 150 -56.5 250t-150.5 100q-69 0 -117 -50.5t-70 -129t-22 -176.5z" />
<glyph unicode="&#xa5;" d="M78 1350v131q28 8 57 8q59 0 98 -33t74 -127q9 -26 172 -510h10q43 109 226 656h168q-30 -80 -98.5 -265t-115.5 -308t-83 -210h207v-121h-228v-161h228v-121h-228v-289h-170v289h-227v121h227v161h-227v121h205q-178 496 -205 559q-18 40 -27 56t-25 29.5t-38 13.5z" />
<glyph unicode="&#xa6;" horiz-adv-x="567" d="M211 -307v786h145v-786h-145zM211 1061v782h145v-782h-145z" />
<glyph unicode="&#xa7;" horiz-adv-x="874" d="M88 653q0 117 55.5 194t143.5 118q-101 113 -101 256q0 157 87.5 244t222.5 87q156 0 262 -77l-29 -144q-47 30 -111 52t-120 22q-65 0 -107.5 -43t-42.5 -129q0 -49 24 -94t62 -82t84 -74t92 -78.5t84 -87t62 -107t24 -132.5q0 -117 -55.5 -193.5t-142.5 -118.5 q100 -119 100 -256q0 -157 -87 -244.5t-222 -87.5q-154 0 -262 78l28 144q47 -30 111 -52t121 -22q65 0 107 43t42 129q0 49 -24 94t-62 82t-84 74t-92 78.5t-84 87t-62 107t-24 132.5zM246 664q0 -32 11 -62.5t24 -52.5t42.5 -52t47 -45.5t58 -48.5t56.5 -47 q65 30 101.5 84.5t36.5 126.5q0 31 -11.5 62t-23.5 52t-44 52.5t-46.5 44.5t-59.5 48.5t-57 45.5q-63 -30 -99 -84t-36 -124z" />
<glyph unicode="&#xa8;" horiz-adv-x="686" d="M88 1432q0 46 24.5 73t67.5 27q40 0 63 -27t23 -73q0 -49 -23 -77t-63 -28q-43 0 -67.5 28t-24.5 77zM420 1432q0 46 24.5 73t65.5 27q40 0 64 -27t24 -73q0 -49 -24 -77t-64 -28q-42 0 -66 28t-24 77z" />
<glyph unicode="&#xa9;" horiz-adv-x="1267" d="M94 770q0 186 42.5 336t116.5 246.5t172 148t210 51.5q113 0 210.5 -52t171 -149t115.5 -247t42 -334q0 -186 -42 -336.5t-115.5 -248t-171 -149.5t-210.5 -52q-112 0 -210 52t-172 149.5t-116.5 248t-42.5 336.5zM193 768q0 -310 124 -501t320 -191q129 0 229 90.5 t154.5 247.5t54.5 352q0 202 -54.5 359t-154.5 244t-229 87q-199 0 -321.5 -187.5t-122.5 -500.5zM342 770q0 224 91 342.5t233 118.5q46 0 97.5 -19t86.5 -49l-14 -114q-32 29 -76 46t-84 17q-100 0 -155.5 -86t-55.5 -256q0 -152 60 -240t155 -88q43 0 90.5 15.5 t77.5 40.5l8 -113q-34 -31 -90.5 -46t-99.5 -15q-139 0 -231.5 119t-92.5 327z" />
<glyph unicode="&#xaa;" horiz-adv-x="595" d="M74 946q0 131 104 170q98 38 178 62v32q0 67 -19.5 101.5t-68.5 34.5q-66 0 -153 -66l-21 94q39 31 93.5 49.5t95.5 18.5q89 0 137.5 -51.5t48.5 -184.5v-291q0 -47 23 -47q6 0 15.5 2t10.5 2l4 -77q-52 -25 -88 -25q-68 0 -74 84l-6 2q-40 -49 -68.5 -67.5t-70.5 -18.5 q-60 0 -100.5 47t-40.5 129zM188 956q0 -44 18.5 -67t45.5 -23q51 0 104 88v140q-71 -23 -123 -50q-45 -19 -45 -88z" />
<glyph unicode="&#xab;" horiz-adv-x="950" d="M113 520v86l354 422v-190l-229 -273l229 -278v-189zM453 520v86l354 422v-190l-229 -273l229 -278v-189z" />
<glyph unicode="&#xac;" d="M125 770v133h711v-524h-115v391h-596z" />
<glyph unicode="&#xad;" horiz-adv-x="610" d="M61 475v131l488 43v-131z" />
<glyph unicode="&#xae;" horiz-adv-x="804" d="M117 1153q0 172 80 285.5t204 113.5q126 0 207.5 -113t81.5 -286q0 -171 -82 -285t-207 -114q-123 0 -203.5 115t-80.5 284zM193 1153q0 -140 56.5 -232t156.5 -92q98 0 153 94t55 236q0 135 -56 226.5t-155 91.5t-154.5 -91t-55.5 -233zM307 985v373h92q44 0 73.5 -27 t29.5 -86q0 -72 -47 -102q16 -46 43 -99q8 -16 30 -16v-45q-24 -4 -43 -4q-34 0 -86 149h-32v-143h-60zM367 1188h22q57 0 57 53q0 57 -53 57h-26v-110z" />
<glyph unicode="&#xaf;" horiz-adv-x="686" d="M111 1360v143h464v-143h-464z" />
<glyph unicode="&#xb0;" horiz-adv-x="632" d="M119 1200q0 132 56.5 211.5t141.5 79.5q90 0 144.5 -80.5t54.5 -202.5q0 -136 -58 -212t-145 -76q-85 0 -139.5 81t-54.5 199zM203 1200q0 -87 31 -137.5t83 -50.5q56 0 85.5 54t29.5 138q0 92 -31 143.5t-86 51.5q-51 0 -81.5 -53t-30.5 -146z" />
<glyph unicode="&#xb1;" d="M145 121v131h670v-131h-670zM145 799v131h273v393h127v-393h270v-131h-270v-383h-127v383h-273z" />
<glyph unicode="&#xb2;" horiz-adv-x="573" d="M82 854q129 129 191.5 224t62.5 194q0 58 -26.5 89.5t-67.5 31.5q-65 0 -121 -62l-31 88q30 28 77.5 49t100.5 21q81 0 134 -52.5t53 -154.5q0 -100 -62 -205t-145 -186l2 -6h223v-101h-379z" />
<glyph unicode="&#xb3;" horiz-adv-x="573" d="M88 836l29 92q63 -60 139 -60q43 0 68.5 30t25.5 87t-39.5 93t-105.5 36v62q129 42 129 131q0 39 -21 62.5t-49 23.5q-65 0 -133 -64l-29 80q33 35 81.5 57.5t101.5 22.5q78 0 124 -42.5t46 -119.5q0 -109 -90 -160v-8q108 -41 108 -174q0 -102 -60.5 -158.5 t-148.5 -56.5q-101 0 -176 66z" />
<glyph unicode="&#xb4;" horiz-adv-x="686" d="M186 1305l183 426l133 -74l-244 -393z" />
<glyph unicode="&#xb5;" horiz-adv-x="956" d="M125 424v680h164v-682q0 -129 39 -204t106 -75q52 0 102.5 44.5t86.5 109.5v807h163v-871q0 -98 37 -98q27 0 56 51l45 -69q-23 -61 -65.5 -97t-88.5 -36q-50 0 -86.5 39.5t-46.5 107.5l-12 2q-40 -71 -95 -110t-116 -39q-89 0 -142 86q9 -251 50 -476l-152 -47 q-25 144 -35 335t-10 542z" />
<glyph unicode="&#xb6;" horiz-adv-x="1187" d="M88 1038q0 82 15 155t48 136t81.5 109t119 72t156.5 26h584v-158h-134v-1685h-174v1689h-112v-1689h-168v868q-105 0 -186 37.5t-130.5 103.5t-74.5 151t-25 185zM252 1044q0 -91 24 -162t82.5 -118t145.5 -47v665q-124 -3 -188 -95t-64 -243z" />
<glyph unicode="&#xb7;" horiz-adv-x="413" d="M102 670q0 54 29.5 88.5t73.5 34.5q51 0 78.5 -33.5t27.5 -89.5q0 -57 -27.5 -91t-80.5 -34q-46 0 -73.5 34.5t-27.5 90.5z" />
<glyph unicode="&#xb8;" horiz-adv-x="686" d="M190 -420l19 76q48 -41 102 -41q38 0 58 23.5t20 58.5q0 88 -94 88h-55l-15 49l125 166h111l-96 -129q63 -3 99 -48t36 -120q0 -79 -48 -126.5t-122 -47.5q-82 0 -140 51z" />
<glyph unicode="&#xb9;" horiz-adv-x="573" d="M117 784v93h123v489l-123 -10v71q69 8 186 54h49v-607h117v-90h-352z" />
<glyph unicode="&#xba;" horiz-adv-x="577" d="M74 1106q0 163 57 250.5t162 87.5t160 -88t55 -250q0 -175 -58.5 -255.5t-156.5 -80.5q-102 0 -160.5 81.5t-58.5 254.5zM182 1108q0 -118 28.5 -178t80.5 -60q49 0 78.5 59.5t29.5 178.5q0 117 -29 178.5t-77 61.5q-111 0 -111 -240z" />
<glyph unicode="&#xbb;" horiz-adv-x="950" d="M143 98v189l230 278l-230 273v190l355 -422v-86zM483 98v189l230 278l-230 273v190l355 -422v-86z" />
<glyph unicode="&#xbc;" horiz-adv-x="1298" d="M117 784v93h123v489l-123 -10v71q69 8 186 54h49v-607h117v-90h-352zM330 31l604 1460l110 -47l-604 -1460zM799 168v74q219 366 278 458l80 -8v-434h57l-8 -90h-49v-168h-100v168h-258zM913 264l2 -6h142v244l-6 2q-30 -48 -138 -240z" />
<glyph unicode="&#xbd;" horiz-adv-x="1298" d="M117 784v93h123v489l-123 -10v71q69 8 186 54h49v-607h117v-90h-352zM295 31l604 1460l111 -47l-604 -1460zM807 70q130 130 192 224t62 193q0 58 -26.5 89.5t-67.5 31.5q-66 0 -121 -61l-31 88q30 28 77.5 49t100.5 21q81 0 134 -52.5t53 -154.5q0 -100 -62 -205.5 t-145 -186.5l2 -6h223v-100h-379z" />
<glyph unicode="&#xbe;" horiz-adv-x="1298" d="M88 836l29 92q63 -60 139 -60q43 0 68.5 30t25.5 87t-39.5 93t-105.5 36v62q129 42 129 131q0 39 -21 62.5t-49 23.5q-65 0 -133 -64l-29 80q33 35 81.5 57.5t101.5 22.5q78 0 124 -42.5t46 -119.5q0 -109 -90 -160v-8q108 -41 108 -174q0 -102 -60.5 -158.5 t-148.5 -56.5q-101 0 -176 66zM330 31l604 1460l110 -47l-604 -1460zM799 168v74q219 366 278 458l80 -8v-434h57l-8 -90h-49v-168h-100v168h-258zM913 264l2 -6h142v244l-6 2q-30 -48 -138 -240z" />
<glyph unicode="&#xbf;" horiz-adv-x="722" d="M94 -47q0 89 27.5 166.5t66.5 133t78 107t66.5 112.5t27.5 126q0 63 -26 154h147q33 -89 33 -174q0 -80 -26 -152.5t-63 -126.5t-74 -105.5t-63 -113.5t-26 -127q0 -106 41 -155.5t109 -49.5q41 0 88.5 17t79.5 47l51 -129q-108 -84 -234 -84q-141 0 -222 97t-81 257z M301 1059q0 52 27.5 80t70.5 28q46 0 75.5 -27.5t29.5 -80.5q0 -52 -30.5 -83.5t-74.5 -31.5q-42 0 -70 31t-28 84z" />
<glyph unicode="&#xc0;" horiz-adv-x="1103" d="M66 0q23 86 118 442.5t178 662t121 431.5h135q4 -19 205.5 -755.5t214.5 -780.5h-180q-9 38 -30.5 122t-51 196.5t-43.5 166.5h-368q0 -2 -29.5 -123t-59 -241t-28.5 -121h-182zM295 1855l92 154l318 -244l-46 -75zM397 633h299q-1 11 -112 481l-33 148h-10 q0 -7 -31 -150z" />
<glyph unicode="&#xc1;" horiz-adv-x="1103" d="M66 0q23 86 118 442.5t178 662t121 431.5h135q4 -19 205.5 -755.5t214.5 -780.5h-180q-9 38 -30.5 122t-51 196.5t-43.5 166.5h-368q0 -2 -29.5 -123t-59 -241t-28.5 -121h-182zM393 1765l318 244l92 -154l-365 -165zM397 633h299q-1 11 -112 481l-33 148h-10 q0 -7 -31 -150z" />
<glyph unicode="&#xc2;" horiz-adv-x="1103" d="M66 0q23 86 118 442.5t178 662t121 431.5h135q4 -19 205.5 -755.5t214.5 -780.5h-180q-9 38 -30.5 122t-51 196.5t-43.5 166.5h-368q0 -2 -29.5 -123t-59 -241t-28.5 -121h-182zM270 1763l222 230h131l221 -230l-45 -73l-244 147l-242 -147zM397 633h299q-1 11 -112 481 l-33 148h-10q0 -7 -31 -150z" />
<glyph unicode="&#xc3;" horiz-adv-x="1103" d="M66 0q23 86 118 442.5t178 662t121 431.5h135q4 -19 205.5 -755.5t214.5 -780.5h-180q-9 38 -30.5 122t-51 196.5t-43.5 166.5h-368q0 -2 -29.5 -123t-59 -241t-28.5 -121h-182zM307 1690q0 115 36 175t95 60q38 0 122.5 -36t109.5 -36q46 0 51 95h96q0 -115 -36 -175.5 t-95 -60.5q-38 0 -122 36t-109 36q-47 0 -52 -94h-96zM397 633h299q-1 11 -112 481l-33 148h-10q0 -7 -31 -150z" />
<glyph unicode="&#xc4;" horiz-adv-x="1103" d="M66 0q23 86 118 442.5t178 662t121 431.5h135q4 -19 205.5 -755.5t214.5 -780.5h-180q-9 38 -30.5 122t-51 196.5t-43.5 166.5h-368q0 -2 -29.5 -123t-59 -241t-28.5 -121h-182zM301 1808q0 46 25 73.5t67 27.5q40 0 63 -27.5t23 -73.5q0 -49 -23 -76.5t-63 -27.5 q-43 0 -67.5 27.5t-24.5 76.5zM397 633h299q-1 11 -112 481l-33 148h-10q0 -7 -31 -150zM633 1808q0 46 24.5 73.5t65.5 27.5q40 0 64 -27.5t24 -73.5q0 -49 -24 -76.5t-64 -27.5q-42 0 -66 27.5t-24 76.5z" />
<glyph unicode="&#xc5;" horiz-adv-x="1103" d="M66 0q23 86 118 442.5t178 662t121 431.5h135q4 -19 205.5 -755.5t214.5 -780.5h-180q-9 38 -30.5 122t-51 196.5t-43.5 166.5h-368q0 -2 -29.5 -123t-59 -241t-28.5 -121h-182zM379 1835q0 108 49.5 172t124.5 64q81 0 129.5 -64.5t48.5 -167.5q0 -112 -50.5 -174.5 t-129.5 -62.5q-74 0 -123 64t-49 169zM397 633h299q-1 11 -112 481l-33 148h-10q0 -7 -31 -150zM463 1837q0 -74 24.5 -114t65.5 -40q94 0 94 154q0 152 -96 152q-42 0 -65 -41.5t-23 -110.5z" />
<glyph unicode="&#xc6;" horiz-adv-x="1433" d="M37 0q267 602 725 1536h569v-154h-393v-532h301l-18 -148h-283v-548h403v-154h-575v379h-371q-23 -56 -86.5 -200t-77.5 -179h-194zM461 526h305v508l6 180l-12 3l-60 -152z" />
<glyph unicode="&#xc7;" horiz-adv-x="1021" d="M88 752q0 199 40.5 354t112.5 251.5t166.5 145.5t206.5 49q185 0 308 -110l-33 -160q-120 111 -264 111q-163 0 -258 -163t-95 -474q0 -298 99.5 -453.5t261.5 -155.5q69 0 146.5 26.5t135.5 70.5l19 -156q-113 -94 -279 -104l-84 -113q63 -3 99.5 -48t36.5 -120 q0 -79 -47.5 -126.5t-122.5 -47.5q-82 0 -140 51l19 76q48 -41 102 -41q38 0 58 23.5t20 58.5q0 88 -94 88h-56l-14 49l117 154q-75 11 -142 45t-126 96.5t-101.5 148.5t-67 207.5t-24.5 266.5z" />
<glyph unicode="&#xc8;" horiz-adv-x="798" d="M131 0v1536h565v-154h-393v-532h301l-18 -148h-283v-548h404v-154h-576zM186 1855l93 154l317 -244l-45 -75z" />
<glyph unicode="&#xc9;" horiz-adv-x="798" d="M131 0v1536h565v-154h-393v-532h301l-18 -148h-283v-548h404v-154h-576zM203 1765l317 244l92 -154l-364 -165z" />
<glyph unicode="&#xca;" horiz-adv-x="798" d="M121 1763l221 230h131l221 -230l-45 -73l-243 147l-242 -147zM131 0v1536h565v-154h-393v-532h301l-18 -148h-283v-548h404v-154h-576z" />
<glyph unicode="&#xcb;" horiz-adv-x="798" d="M131 0v1536h565v-154h-393v-532h301l-18 -148h-283v-548h404v-154h-576zM152 1808q0 46 25 73.5t67 27.5q40 0 63 -27.5t23 -73.5q0 -49 -23 -76.5t-63 -27.5q-43 0 -67.5 27.5t-24.5 76.5zM483 1808q0 46 24.5 73.5t65.5 27.5q40 0 64.5 -27.5t24.5 -73.5 q0 -49 -24.5 -76.5t-64.5 -27.5q-42 0 -66 27.5t-24 76.5z" />
<glyph unicode="&#xcc;" horiz-adv-x="432" d="M-31 1855l92 154l318 -244l-45 -75zM131 0v1536h170v-1536h-170z" />
<glyph unicode="&#xcd;" horiz-adv-x="432" d="M49 1765l318 244l92 -154l-365 -165zM131 0v1536h170v-1536h-170z" />
<glyph unicode="&#xce;" horiz-adv-x="432" d="M-72 1763l222 230h131l221 -230l-45 -73l-244 147l-242 -147zM131 0v1536h170v-1536h-170z" />
<glyph unicode="&#xcf;" horiz-adv-x="432" d="M-41 1808q0 46 25 73.5t67 27.5q40 0 63 -27.5t23 -73.5q0 -49 -23 -76.5t-63 -27.5q-43 0 -67.5 27.5t-24.5 76.5zM131 0v1536h170v-1536h-170zM291 1808q0 46 24.5 73.5t65.5 27.5q40 0 64 -27.5t24 -73.5q0 -49 -24 -76.5t-64 -27.5q-42 0 -66 27.5t-24 76.5z" />
<glyph unicode="&#xd0;" horiz-adv-x="1159" d="M45 733v146h125v657h358q140 0 244.5 -55.5t168 -159t94 -241t30.5 -310.5q0 -132 -19.5 -247.5t-61 -212t-102.5 -165t-146.5 -107t-190.5 -38.5h-375v733h-125zM340 154h186q93 0 163 49.5t111 136.5t61 195t20 235q0 293 -93.5 452.5t-271.5 159.5h-176v-503h201v-146 h-201v-579z" />
<glyph unicode="&#xd1;" horiz-adv-x="1173" d="M131 0v1536h150q210 -370 538 -1010l51 -112l11 2l-7 121l-2 999h170v-1536l-106 -16q-542 1020 -576 1083l-63 139h-8l4 -147l4 -1059h-166zM338 1690q0 115 36 175t95 60q38 0 122 -36t109 -36q47 0 52 95h96q0 -115 -36 -175.5t-95 -60.5q-38 0 -122.5 36t-109.5 36 q-46 0 -51 -94h-96z" />
<glyph unicode="&#xd2;" horiz-adv-x="1191" d="M94 772q0 229 53.5 402t169 275.5t281.5 102.5q124 0 220.5 -59t157 -164t91.5 -244.5t31 -306.5q0 -237 -56.5 -414t-170.5 -278.5t-275 -101.5q-163 0 -277.5 102.5t-169.5 278t-55 407.5zM276 772q0 -187 34.5 -327t107 -222t176.5 -82q155 0 238 167.5t83 469.5 q0 287 -83 453t-238 166q-104 0 -176.5 -81.5t-107 -220.5t-34.5 -323zM385 1855l92 154l318 -244l-45 -75z" />
<glyph unicode="&#xd3;" horiz-adv-x="1191" d="M94 772q0 229 53.5 402t169 275.5t281.5 102.5q124 0 220.5 -59t157 -164t91.5 -244.5t31 -306.5q0 -237 -56.5 -414t-170.5 -278.5t-275 -101.5q-163 0 -277.5 102.5t-169.5 278t-55 407.5zM276 772q0 -187 34.5 -327t107 -222t176.5 -82q155 0 238 167.5t83 469.5 q0 287 -83 453t-238 166q-104 0 -176.5 -81.5t-107 -220.5t-34.5 -323zM397 1765l318 244l92 -154l-365 -165z" />
<glyph unicode="&#xd4;" horiz-adv-x="1191" d="M94 772q0 229 53.5 402t169 275.5t281.5 102.5q124 0 220.5 -59t157 -164t91.5 -244.5t31 -306.5q0 -237 -56.5 -414t-170.5 -278.5t-275 -101.5q-163 0 -277.5 102.5t-169.5 278t-55 407.5zM276 772q0 -187 34.5 -327t107 -222t176.5 -82q155 0 238 167.5t83 469.5 q0 287 -83 453t-238 166q-104 0 -176.5 -81.5t-107 -220.5t-34.5 -323zM309 1763l221 230h132l221 -230l-45 -73l-244 147l-242 -147z" />
<glyph unicode="&#xd5;" horiz-adv-x="1191" d="M94 772q0 229 53.5 402t169 275.5t281.5 102.5q124 0 220.5 -59t157 -164t91.5 -244.5t31 -306.5q0 -237 -56.5 -414t-170.5 -278.5t-275 -101.5q-163 0 -277.5 102.5t-169.5 278t-55 407.5zM276 772q0 -187 34.5 -327t107 -222t176.5 -82q155 0 238 167.5t83 469.5 q0 287 -83 453t-238 166q-104 0 -176.5 -81.5t-107 -220.5t-34.5 -323zM342 1690q0 115 36 175t95 60q38 0 122.5 -36t109.5 -36q46 0 51 95h96q0 -115 -36 -175.5t-95 -60.5q-38 0 -122.5 36t-109.5 36q-46 0 -51 -94h-96z" />
<glyph unicode="&#xd6;" horiz-adv-x="1191" d="M94 772q0 229 53.5 402t169 275.5t281.5 102.5q124 0 220.5 -59t157 -164t91.5 -244.5t31 -306.5q0 -237 -56.5 -414t-170.5 -278.5t-275 -101.5q-163 0 -277.5 102.5t-169.5 278t-55 407.5zM276 772q0 -187 34.5 -327t107 -222t176.5 -82q155 0 238 167.5t83 469.5 q0 287 -83 453t-238 166q-104 0 -176.5 -81.5t-107 -220.5t-34.5 -323zM344 1808q0 46 25 73.5t67 27.5q40 0 63 -27.5t23 -73.5q0 -49 -23 -76.5t-63 -27.5q-43 0 -67.5 27.5t-24.5 76.5zM676 1808q0 46 24.5 73.5t65.5 27.5q40 0 64 -27.5t24 -73.5q0 -49 -24 -76.5 t-64 -27.5q-42 0 -66 27.5t-24 76.5z" />
<glyph unicode="&#xd7;" d="M147 287l256 372l-256 361l101 82l233 -342l234 342l100 -82l-256 -363l256 -370l-100 -82l-236 340l-231 -340z" />
<glyph unicode="&#xd8;" horiz-adv-x="1191" d="M94 772q0 229 53.5 402t169 275.5t281.5 102.5q138 0 248 -77l37 84h127l-76 -173q164 -205 164 -608q0 -237 -56.5 -414t-170.5 -278.5t-275 -101.5q-139 0 -242 71l-32 -75h-127l69 161q-84 103 -127 266t-43 365zM276 772q0 -277 72 -440l428 981q-78 84 -182 84 t-176.5 -81.5t-107 -220.5t-34.5 -323zM424 215q74 -74 170 -74q155 0 238 167.5t83 469.5q0 254 -65 414z" />
<glyph unicode="&#xd9;" horiz-adv-x="1110" d="M115 621v915h172v-911q0 -252 73.5 -367t194.5 -115q44 0 81 13t72.5 46t60 85.5t39.5 136.5t15 194v918h172v-924q0 -166 -34 -289.5t-96 -196t-139.5 -107.5t-172.5 -35q-76 0 -140.5 22t-120 70.5t-94.5 121.5t-61 180.5t-22 242.5zM322 1855l92 154l317 -244l-45 -75 z" />
<glyph unicode="&#xda;" horiz-adv-x="1110" d="M115 621v915h172v-911q0 -252 73.5 -367t194.5 -115q44 0 81 13t72.5 46t60 85.5t39.5 136.5t15 194v918h172v-924q0 -166 -34 -289.5t-96 -196t-139.5 -107.5t-172.5 -35q-76 0 -140.5 22t-120 70.5t-94.5 121.5t-61 180.5t-22 242.5zM375 1765l317 244l92 -154 l-364 -165z" />
<glyph unicode="&#xdb;" horiz-adv-x="1110" d="M115 621v915h172v-911q0 -252 73.5 -367t194.5 -115q44 0 81 13t72.5 46t60 85.5t39.5 136.5t15 194v918h172v-924q0 -166 -34 -289.5t-96 -196t-139.5 -107.5t-172.5 -35q-76 0 -140.5 22t-120 70.5t-94.5 121.5t-61 180.5t-22 242.5zM266 1763l221 230h131l222 -230 l-45 -73l-244 147l-242 -147z" />
<glyph unicode="&#xdc;" horiz-adv-x="1110" d="M115 621v915h172v-911q0 -252 73.5 -367t194.5 -115q44 0 81 13t72.5 46t60 85.5t39.5 136.5t15 194v918h172v-924q0 -166 -34 -289.5t-96 -196t-139.5 -107.5t-172.5 -35q-76 0 -140.5 22t-120 70.5t-94.5 121.5t-61 180.5t-22 242.5zM301 1808q0 46 25 73.5t67 27.5 q40 0 63 -27.5t23 -73.5q0 -49 -23 -76.5t-63 -27.5q-43 0 -67.5 27.5t-24.5 76.5zM633 1808q0 46 24.5 73.5t65.5 27.5q40 0 64 -27.5t24 -73.5q0 -49 -24 -76.5t-64 -27.5q-42 0 -66 27.5t-24 76.5z" />
<glyph unicode="&#xdd;" horiz-adv-x="970" d="M59 1399v131q27 8 66 8q58 0 98.5 -35t75.5 -127l186 -495h9q78 196 231 655h184q-89 -238 -342 -834v-702h-170v702q-24 59 -79.5 200t-97 245.5t-62.5 152.5q-24 52 -45.5 75.5t-53.5 23.5zM328 1765l317 244l92 -154l-364 -165z" />
<glyph unicode="&#xde;" horiz-adv-x="899" d="M131 0v1536h172v-299h135q178 0 278.5 -116.5t100.5 -327.5q0 -225 -104 -354.5t-314 -129.5q-34 0 -96 8v-317h-172zM303 473q33 -8 84 -8q130 0 193 72.5t63 250.5q0 295 -221 295h-119v-610z" />
<glyph unicode="&#xdf;" horiz-adv-x="1056" d="M63 969v135h117v20q0 229 94.5 343t266.5 114q160 0 249 -86.5t89 -220.5q0 -79 -24.5 -143.5t-59 -106.5t-69 -78t-59 -76.5t-24.5 -83.5q0 -35 18.5 -63.5t47.5 -49.5t64.5 -42.5t71 -49t64.5 -62.5t47.5 -89.5t18.5 -122.5q0 -153 -80.5 -238t-208.5 -85 q-147 0 -229 79l24 130q104 -72 193 -72q62 0 101.5 43t39.5 141q0 45 -18.5 79t-48 57t-65.5 43.5t-72 45t-65.5 54.5t-48 78.5t-18.5 111.5q0 67 23.5 123t56.5 95t66 76.5t56.5 86.5t23.5 107q0 80 -45 128t-121 48q-50 0 -86.5 -20t-56.5 -50t-32 -76.5t-15 -86.5 t-3 -93v-1112h-166v969h-117z" />
<glyph unicode="&#xe0;" horiz-adv-x="876" d="M88 305q0 110 42 167t134 91q46 17 151 51.5t144 49.5v84q0 119 -35.5 176t-113.5 57q-127 0 -248 -100l-37 125q63 56 140.5 85t150.5 29q51 0 92.5 -8.5t83.5 -33t70 -65t45.5 -109.5t17.5 -161v-534q0 -38 8 -60t33 -22q15 0 47 4l6 -106q-74 -41 -133 -41 q-54 0 -82 34.5t-37 108.5l-8 4q-68 -80 -116.5 -113.5t-112.5 -33.5q-97 0 -169.5 90.5t-72.5 230.5zM238 1657l133 74l182 -426l-72 -41zM256 313q0 -85 32 -138.5t83 -53.5q42 0 94 41.5t94 111.5v275q-162 -58 -217 -82q-42 -21 -64 -53.5t-22 -100.5z" />
<glyph unicode="&#xe1;" horiz-adv-x="876" d="M88 305q0 110 42 167t134 91q46 17 151 51.5t144 49.5v84q0 119 -35.5 176t-113.5 57q-127 0 -248 -100l-37 125q63 56 140.5 85t150.5 29q51 0 92.5 -8.5t83.5 -33t70 -65t45.5 -109.5t17.5 -161v-534q0 -38 8 -60t33 -22q15 0 47 4l6 -106q-74 -41 -133 -41 q-54 0 -82 34.5t-37 108.5l-8 4q-68 -80 -116.5 -113.5t-112.5 -33.5q-97 0 -169.5 90.5t-72.5 230.5zM256 313q0 -85 32 -138.5t83 -53.5q42 0 94 41.5t94 111.5v275q-162 -58 -217 -82q-42 -21 -64 -53.5t-22 -100.5zM309 1305l183 426l133 -74l-244 -393z" />
<glyph unicode="&#xe2;" horiz-adv-x="876" d="M88 305q0 110 42 167t134 91q46 17 151 51.5t144 49.5v84q0 119 -35.5 176t-113.5 57q-127 0 -248 -100l-37 125q63 56 140.5 85t150.5 29q51 0 92.5 -8.5t83.5 -33t70 -65t45.5 -109.5t17.5 -161v-534q0 -38 8 -60t33 -22q15 0 47 4l6 -106q-74 -41 -133 -41 q-54 0 -82 34.5t-37 108.5l-8 4q-68 -80 -116.5 -113.5t-112.5 -33.5q-97 0 -169.5 90.5t-72.5 230.5zM176 1309l182 391h136l184 -391l-78 -47l-174 286l-174 -286zM256 313q0 -85 32 -138.5t83 -53.5q42 0 94 41.5t94 111.5v275q-162 -58 -217 -82q-42 -21 -64 -53.5 t-22 -100.5z" />
<glyph unicode="&#xe3;" horiz-adv-x="876" d="M88 305q0 110 42 167t134 91q46 17 151 51.5t144 49.5v84q0 119 -35.5 176t-113.5 57q-127 0 -248 -100l-37 125q63 56 140.5 85t150.5 29q51 0 92.5 -8.5t83.5 -33t70 -65t45.5 -109.5t17.5 -161v-534q0 -38 8 -60t33 -22q15 0 47 4l6 -106q-74 -41 -133 -41 q-54 0 -82 34.5t-37 108.5l-8 4q-68 -80 -116.5 -113.5t-112.5 -33.5q-97 0 -169.5 90.5t-72.5 230.5zM176 1303q0 115 36 175t95 60q38 0 122.5 -36t109.5 -36q46 0 51 95h96q0 -115 -36 -175.5t-95 -60.5q-38 0 -122 36t-109 36q-47 0 -52 -94h-96zM256 313 q0 -85 32 -138.5t83 -53.5q42 0 94 41.5t94 111.5v275q-162 -58 -217 -82q-42 -21 -64 -53.5t-22 -100.5z" />
<glyph unicode="&#xe4;" horiz-adv-x="876" d="M88 305q0 110 42 167t134 91q46 17 151 51.5t144 49.5v84q0 119 -35.5 176t-113.5 57q-127 0 -248 -100l-37 125q63 56 140.5 85t150.5 29q51 0 92.5 -8.5t83.5 -33t70 -65t45.5 -109.5t17.5 -161v-534q0 -38 8 -60t33 -22q15 0 47 4l6 -106q-74 -41 -133 -41 q-54 0 -82 34.5t-37 108.5l-8 4q-68 -80 -116.5 -113.5t-112.5 -33.5q-97 0 -169.5 90.5t-72.5 230.5zM172 1432q0 46 24.5 73t67.5 27q40 0 63 -27t23 -73q0 -49 -23 -77t-63 -28q-43 0 -67.5 28t-24.5 77zM256 313q0 -85 32 -138.5t83 -53.5q42 0 94 41.5t94 111.5v275 q-162 -58 -217 -82q-42 -21 -64 -53.5t-22 -100.5zM504 1432q0 46 24.5 73t65.5 27q40 0 64 -27t24 -73q0 -49 -24 -77t-64 -28q-42 0 -66 28t-24 77z" />
<glyph unicode="&#xe5;" horiz-adv-x="876" d="M88 305q0 110 42 167t134 91q46 17 151 51.5t144 49.5v84q0 119 -35.5 176t-113.5 57q-127 0 -248 -100l-37 125q63 56 140.5 85t150.5 29q51 0 92.5 -8.5t83.5 -33t70 -65t45.5 -109.5t17.5 -161v-534q0 -38 8 -60t33 -22q15 0 47 4l6 -106q-74 -41 -133 -41 q-54 0 -82 34.5t-37 108.5l-8 4q-68 -80 -116.5 -113.5t-112.5 -33.5q-97 0 -169.5 90.5t-72.5 230.5zM252 1499q0 108 49.5 172t124.5 64q81 0 129.5 -64.5t48.5 -167.5q0 -112 -50.5 -174.5t-129.5 -62.5q-74 0 -123 64t-49 169zM256 313q0 -85 32 -138.5t83 -53.5 q42 0 94 41.5t94 111.5v275q-162 -58 -217 -82q-42 -21 -64 -53.5t-22 -100.5zM336 1501q0 -74 24.5 -113.5t65.5 -39.5q94 0 94 153q0 152 -96 152q-42 0 -65 -41.5t-23 -110.5z" />
<glyph unicode="&#xe6;" horiz-adv-x="1308" d="M88 305q0 110 42 167t134 91q46 17 151 51.5t144 49.5v81q0 119 -35.5 177.5t-113.5 58.5q-127 0 -248 -100l-37 125q63 56 140.5 85t150.5 29q189 0 250 -143q90 143 252 143q159 0 236 -121t77 -337q0 -55 -2 -84h-510v-50q0 -204 67.5 -302.5t176.5 -98.5 q56 0 118.5 17.5t110.5 45.5l18 -133q-117 -73 -266 -73q-212 0 -307 198h-8q-65 -100 -144.5 -149t-154.5 -49q-97 0 -169.5 90.5t-72.5 230.5zM256 313q0 -85 32 -138.5t83 -53.5q42 0 94 41.5t94 111.5v275q-162 -58 -217 -82q-42 -21 -64 -53.5t-22 -100.5zM727 690h346 q0 154 -41.5 227.5t-113.5 73.5q-76 0 -128 -74t-63 -227z" />
<glyph unicode="&#xe7;" horiz-adv-x="774" d="M94 537q0 101 9.5 183.5t34.5 159t64.5 128t102 82t144.5 30.5q59 0 125 -17.5t110 -47.5l-27 -148q-39 27 -94 45.5t-98 18.5q-107 0 -155 -104t-48 -326q0 -192 53.5 -301t163.5 -109q93 0 201 57l20 -135q-79 -54 -200 -67l-86 -115q63 -3 99 -48t36 -120 q0 -79 -47.5 -126.5t-122.5 -47.5q-81 0 -139 51l18 76q48 -41 102 -41q38 0 58 23.5t20 58.5q0 88 -94 88h-55l-15 49l117 156q-140 22 -218.5 160t-78.5 387z" />
<glyph unicode="&#xe8;" horiz-adv-x="849" d="M94 535q0 125 20 225.5t53.5 166.5t81 110.5t99.5 63.5t111 19q159 0 236 -121t77 -337q0 -55 -2 -84h-510v-50q0 -204 67.5 -302.5t176.5 -98.5q56 0 118.5 17.5t110.5 45.5l19 -133q-117 -73 -267 -73q-79 0 -147 31t-124 94.5t-88 172.5t-32 253zM244 1657l133 74 l182 -426l-72 -41zM268 690h346q0 154 -41.5 227.5t-113.5 73.5q-76 0 -128 -74t-63 -227z" />
<glyph unicode="&#xe9;" horiz-adv-x="849" d="M94 535q0 125 20 225.5t53.5 166.5t81 110.5t99.5 63.5t111 19q159 0 236 -121t77 -337q0 -55 -2 -84h-510v-50q0 -204 67.5 -302.5t176.5 -98.5q56 0 118.5 17.5t110.5 45.5l19 -133q-117 -73 -267 -73q-79 0 -147 31t-124 94.5t-88 172.5t-32 253zM268 690h346 q0 154 -41.5 227.5t-113.5 73.5q-76 0 -128 -74t-63 -227zM315 1305l183 426l133 -74l-244 -393z" />
<glyph unicode="&#xea;" horiz-adv-x="849" d="M94 535q0 125 20 225.5t53.5 166.5t81 110.5t99.5 63.5t111 19q159 0 236 -121t77 -337q0 -55 -2 -84h-510v-50q0 -204 67.5 -302.5t176.5 -98.5q56 0 118.5 17.5t110.5 45.5l19 -133q-117 -73 -267 -73q-79 0 -147 31t-124 94.5t-88 172.5t-32 253zM209 1309l182 391 h135l185 -391l-78 -47l-174 286l-174 -286zM268 690h346q0 154 -41.5 227.5t-113.5 73.5q-76 0 -128 -74t-63 -227z" />
<glyph unicode="&#xeb;" horiz-adv-x="849" d="M94 535q0 125 20 225.5t53.5 166.5t81 110.5t99.5 63.5t111 19q159 0 236 -121t77 -337q0 -55 -2 -84h-510v-50q0 -204 67.5 -302.5t176.5 -98.5q56 0 118.5 17.5t110.5 45.5l19 -133q-117 -73 -267 -73q-79 0 -147 31t-124 94.5t-88 172.5t-32 253zM205 1432 q0 46 24.5 73t67.5 27q40 0 63 -27t23 -73q0 -49 -23 -77t-63 -28q-43 0 -67.5 28t-24.5 77zM268 690h346q0 154 -41.5 227.5t-113.5 73.5q-76 0 -128 -74t-63 -227zM537 1432q0 46 24.5 73t65.5 27q40 0 64 -27t24 -73q0 -49 -24 -77t-64 -28q-42 0 -66 28t-24 77z" />
<glyph unicode="&#xec;" horiz-adv-x="411" d="M-18 1657l133 74l182 -426l-72 -41zM125 0v1104h168v-1104h-168z" />
<glyph unicode="&#xed;" horiz-adv-x="411" d="M123 1305l182 426l133 -74l-243 -393zM125 0v1104h168v-1104h-168z" />
<glyph unicode="&#xee;" horiz-adv-x="411" d="M-43 1309l182 391h135l185 -391l-78 -47l-174 286l-174 -286zM125 0v1104h168v-1104h-168z" />
<glyph unicode="&#xef;" horiz-adv-x="411" d="M-49 1432q0 46 24.5 73t67.5 27q40 0 63 -27t23 -73q0 -49 -23 -77t-63 -28q-43 0 -67.5 28t-24.5 77zM125 0v1104h168v-1104h-168zM283 1432q0 46 24.5 73t65.5 27q40 0 64 -27t24 -73q0 -49 -24 -77t-64 -28q-42 0 -66 28t-24 77z" />
<glyph unicode="&#xf0;" horiz-adv-x="868" d="M88 455q0 231 92.5 360t251.5 129q71 0 135 -45l11 6q-32 159 -115 291l-193 -109v148l113 63q-80 86 -184 144l51 141q53 -19 126.5 -69t143.5 -136l189 109v-152l-111 -63q170 -279 170 -694q0 -120 -21.5 -224.5t-63.5 -188.5t-112 -132.5t-159 -48.5 q-61 0 -117.5 27.5t-103.5 82.5t-75 148t-28 213zM242 465q0 -153 48 -246.5t130 -93.5q64 0 108 62t63 159t19 223q0 68 -8 166q-61 74 -153 74q-94 0 -150.5 -84t-56.5 -260z" />
<glyph unicode="&#xf1;" horiz-adv-x="890" d="M125 0v1106h135l21 -143l10 -2q115 159 248 159q118 0 181.5 -105t63.5 -296v-719h-166v694q0 140 -33.5 200t-101.5 60q-56 0 -106.5 -40t-87.5 -107v-807h-164zM190 1303q0 115 36.5 175t95.5 60q38 0 122 -36t109 -36q46 0 51 95h96q0 -115 -36 -175.5t-95 -60.5 q-38 0 -122 36t-109 36q-46 0 -51 -94h-97z" />
<glyph unicode="&#xf2;" horiz-adv-x="917" d="M94 549q0 278 94 424.5t273 146.5q177 0 269.5 -147.5t92.5 -421.5q0 -284 -97 -425.5t-267 -141.5q-168 0 -266.5 140t-98.5 425zM264 547q0 -208 51 -315t144 -107q95 0 144.5 107t49.5 319q0 428 -192 428q-197 0 -197 -432zM272 1657l134 74l182 -426l-72 -41z" />
<glyph unicode="&#xf3;" horiz-adv-x="917" d="M94 549q0 278 94 424.5t273 146.5q177 0 269.5 -147.5t92.5 -421.5q0 -284 -97 -425.5t-267 -141.5q-168 0 -266.5 140t-98.5 425zM264 547q0 -208 51 -315t144 -107q95 0 144.5 107t49.5 319q0 428 -192 428q-197 0 -197 -432zM336 1305l182 426l133 -74l-243 -393z" />
<glyph unicode="&#xf4;" horiz-adv-x="917" d="M94 549q0 278 94 424.5t273 146.5q177 0 269.5 -147.5t92.5 -421.5q0 -284 -97 -425.5t-267 -141.5q-168 0 -266.5 140t-98.5 425zM213 1309l182 391h135l185 -391l-78 -47l-174 286l-174 -286zM264 547q0 -208 51 -315t144 -107q95 0 144.5 107t49.5 319q0 428 -192 428 q-197 0 -197 -432z" />
<glyph unicode="&#xf5;" horiz-adv-x="917" d="M94 549q0 278 94 424.5t273 146.5q177 0 269.5 -147.5t92.5 -421.5q0 -284 -97 -425.5t-267 -141.5q-168 0 -266.5 140t-98.5 425zM205 1303q0 115 36 175t95 60q38 0 122 -36t109 -36q46 0 51 95h97q0 -115 -36 -175.5t-95 -60.5q-38 0 -122.5 36t-109.5 36 q-46 0 -51 -94h-96zM264 547q0 -208 51 -315t144 -107q95 0 144.5 107t49.5 319q0 428 -192 428q-197 0 -197 -432z" />
<glyph unicode="&#xf6;" horiz-adv-x="917" d="M94 549q0 278 94 424.5t273 146.5q177 0 269.5 -147.5t92.5 -421.5q0 -284 -97 -425.5t-267 -141.5q-168 0 -266.5 140t-98.5 425zM205 1432q0 46 24.5 73t67.5 27q40 0 63 -27t23 -73q0 -49 -23 -77t-63 -28q-43 0 -67.5 28t-24.5 77zM264 547q0 -208 51 -315t144 -107 q95 0 144.5 107t49.5 319q0 428 -192 428q-197 0 -197 -432zM537 1432q0 46 24.5 73t65.5 27q40 0 64 -27t24 -73q0 -49 -24 -77t-64 -28q-42 0 -66 28t-24 77z" />
<glyph unicode="&#xf7;" d="M125 590v133h711v-133h-711zM389 311q0 53 26 86t66 33t66 -33t26 -86q0 -51 -25.5 -80.5t-66.5 -29.5t-66.5 29.5t-25.5 80.5zM389 997q0 53 25 82t67 29q40 0 66 -29.5t26 -81.5t-26.5 -84t-65.5 -32q-41 0 -66.5 32t-25.5 84z" />
<glyph unicode="&#xf8;" horiz-adv-x="917" d="M94 549q0 278 94 424.5t273 146.5q108 0 184 -55l37 82h94l-65 -148q112 -145 112 -448q0 -284 -97 -425.5t-267 -141.5q-102 0 -178 49l-35 -80h-94l63 141q-121 143 -121 455zM264 547q0 -170 33 -268l283 636q-49 64 -119 64q-197 0 -197 -432zM346 180 q46 -55 113 -55q95 0 144.5 107t49.5 319q0 156 -26 258z" />
<glyph unicode="&#xf9;" horiz-adv-x="897" d="M111 385v719h163v-694q0 -151 30 -216t99 -65q61 0 114.5 43.5t90.5 106.5v825h164v-1104h-125l-26 131l-13 4q-117 -151 -243 -151q-120 0 -187 101t-67 300zM229 1657l133 74l183 -426l-72 -41z" />
<glyph unicode="&#xfa;" horiz-adv-x="897" d="M111 385v719h163v-694q0 -151 30 -216t99 -65q61 0 114.5 43.5t90.5 106.5v825h164v-1104h-125l-26 131l-13 4q-117 -151 -243 -151q-120 0 -187 101t-67 300zM330 1305l182 426l133 -74l-244 -393z" />
<glyph unicode="&#xfb;" horiz-adv-x="897" d="M111 385v719h163v-694q0 -151 30 -216t99 -65q61 0 114.5 43.5t90.5 106.5v825h164v-1104h-125l-26 131l-13 4q-117 -151 -243 -151q-120 0 -187 101t-67 300zM188 1309l183 391h135l184 -391l-78 -47l-174 286l-174 -286z" />
<glyph unicode="&#xfc;" horiz-adv-x="897" d="M111 385v719h163v-694q0 -151 30 -216t99 -65q61 0 114.5 43.5t90.5 106.5v825h164v-1104h-125l-26 131l-13 4q-117 -151 -243 -151q-120 0 -187 101t-67 300zM184 1432q0 46 24.5 73t67.5 27q40 0 63 -27t23 -73q0 -49 -23 -77t-63 -28q-43 0 -67.5 28t-24.5 77z M516 1432q0 46 24.5 73t65.5 27q40 0 64 -27t24 -73q0 -49 -24 -77t-64 -28q-42 0 -66 28t-24 77z" />
<glyph unicode="&#xfd;" horiz-adv-x="884" d="M59 987v117q24 4 70 4q62 0 94.5 -33t55.5 -121q24 -98 161 -759h9q30 111 70.5 289t85 386.5t50.5 233.5h168q-69 -287 -202 -804.5t-207 -770.5h-181q89 266 146 471h-41q-14 61 -51.5 228.5t-63 279t-55 232.5t-45.5 171q-12 41 -24 58t-40 18zM336 1305l182 426 l133 -74l-243 -393z" />
<glyph unicode="&#xfe;" horiz-adv-x="899" d="M125 -471v2048h160v-367l-11 -245l9 -2q45 73 98 115t129 42q95 0 164.5 -74.5t103 -196.5t33.5 -276q0 -289 -94 -439t-260 -150q-90 0 -172 47v-502h-160zM285 178q29 -26 69.5 -41.5t75.5 -15.5q59 0 101.5 36t66 99.5t34.5 139.5t11 167q0 200 -46 307t-122 107 q-56 0 -105 -43.5t-85 -122.5v-633z" />
<glyph unicode="&#xff;" horiz-adv-x="884" d="M59 987v117q24 4 70 4q62 0 94.5 -33t55.5 -121q24 -98 161 -759h9q30 111 70.5 289t85 386.5t50.5 233.5h168q-69 -287 -202 -804.5t-207 -770.5h-181q89 266 146 471h-41q-14 61 -51.5 228.5t-63 279t-55 232.5t-45.5 171q-12 41 -24 58t-40 18zM205 1432q0 46 24.5 73 t67.5 27q40 0 63 -27t23 -73q0 -49 -23 -77t-63 -28q-43 0 -67.5 28t-24.5 77zM537 1432q0 46 24.5 73t65.5 27q40 0 64 -27t24 -73q0 -49 -24 -77t-64 -28q-42 0 -66 28t-24 77z" />
<glyph unicode="&#x152;" horiz-adv-x="1382" d="M94 754q0 224 54.5 397.5t170.5 279t281 105.5h680v-154h-393v-532h301l-19 -148h-282v-548h403v-154h-696q-162 0 -276 98t-169 266t-55 390zM274 752q0 -274 85.5 -435t242.5 -161h113v1226h-113q-104 0 -179 -84.5t-112 -225.5t-37 -320z" />
<glyph unicode="&#x153;" horiz-adv-x="1406" d="M94 549q0 278 94 424.5t273 146.5q196 0 274 -194q89 194 281 194q159 0 236 -121t77 -337q0 -55 -2 -84h-510v-50q0 -204 67.5 -302.5t176.5 -98.5q56 0 118.5 17.5t110.5 45.5l19 -133q-117 -73 -267 -73q-208 0 -307 194q-77 -194 -276 -194q-168 0 -266.5 140 t-98.5 425zM264 547q0 -208 51 -315t144 -107q95 0 144.5 107t49.5 319q0 428 -192 428q-197 0 -197 -432zM825 690h346q0 154 -41.5 227.5t-113.5 73.5q-76 0 -128 -74t-63 -227z" />
<glyph unicode="&#x178;" horiz-adv-x="970" d="M59 1399v131q27 8 66 8q58 0 98.5 -35t75.5 -127l186 -495h9q78 196 231 655h184q-89 -238 -342 -834v-702h-170v702q-24 59 -79.5 200t-97 245.5t-62.5 152.5q-24 52 -45.5 75.5t-53.5 23.5zM229 1808q0 46 25 73.5t68 27.5q40 0 63 -27.5t23 -73.5q0 -49 -23 -76.5 t-63 -27.5q-43 0 -68 27.5t-25 76.5zM561 1808q0 46 24.5 73.5t65.5 27.5q40 0 64 -27.5t24 -73.5q0 -49 -24 -76.5t-64 -27.5q-42 0 -66 27.5t-24 76.5z" />
<glyph unicode="&#x2c6;" horiz-adv-x="686" d="M94 1309l182 391h136l184 -391l-78 -47l-174 286l-174 -286z" />
<glyph unicode="&#x2dc;" horiz-adv-x="686" d="M88 1303q0 115 36 175t95 60q38 0 122.5 -36t109.5 -36q46 0 51 95h96q0 -115 -36 -175.5t-95 -60.5q-38 0 -122 36t-109 36q-47 0 -52 -94h-96z" />
<glyph unicode="&#x2000;" horiz-adv-x="1035" />
<glyph unicode="&#x2001;" horiz-adv-x="2071" />
<glyph unicode="&#x2002;" horiz-adv-x="1035" />
<glyph unicode="&#x2003;" horiz-adv-x="2071" />
<glyph unicode="&#x2004;" horiz-adv-x="690" />
<glyph unicode="&#x2005;" horiz-adv-x="517" />
<glyph unicode="&#x2006;" horiz-adv-x="345" />
<glyph unicode="&#x2007;" horiz-adv-x="345" />
<glyph unicode="&#x2008;" horiz-adv-x="258" />
<glyph unicode="&#x2009;" horiz-adv-x="414" />
<glyph unicode="&#x200a;" horiz-adv-x="115" />
<glyph unicode="&#x2010;" horiz-adv-x="610" d="M61 475v131l488 43v-131z" />
<glyph unicode="&#x2011;" horiz-adv-x="610" d="M61 475v131l488 43v-131z" />
<glyph unicode="&#x2012;" horiz-adv-x="610" d="M61 475v131l488 43v-131z" />
<glyph unicode="&#x2013;" horiz-adv-x="948" d="M61 500v131h826v-131h-826z" />
<glyph unicode="&#x2014;" horiz-adv-x="1339" d="M61 498v135h1217v-135h-1217z" />
<glyph unicode="&#x2018;" horiz-adv-x="387" d="M88 1278q0 154 115 278l92 -28q-72 -99 -72 -209q0 -90 70 -191l-137 -41q-68 81 -68 191z" />
<glyph unicode="&#x2019;" horiz-adv-x="387" d="M92 1112q72 99 72 209q0 89 -70 190l137 41q68 -81 68 -190q0 -155 -115 -279z" />
<glyph unicode="&#x201a;" horiz-adv-x="387" d="M88 -207q72 99 72 209q0 90 -70 191l137 40q68 -81 68 -190q0 -155 -115 -279z" />
<glyph unicode="&#x201c;" horiz-adv-x="645" d="M88 1278q0 154 115 278l92 -28q-72 -99 -72 -209q0 -90 70 -191l-137 -41q-68 81 -68 191zM346 1280q0 145 115 272l92 -30q-70 -98 -70 -199q0 -93 68 -193l-133 -40q-72 90 -72 190z" />
<glyph unicode="&#x201d;" horiz-adv-x="645" d="M94 1118q70 98 70 199q0 92 -68 192l133 41q72 -90 72 -190q0 -146 -115 -273zM352 1112q72 99 72 209q0 89 -70 190l138 41q67 -80 67 -190q0 -155 -115 -279z" />
<glyph unicode="&#x201e;" horiz-adv-x="645" d="M88 -199q70 98 70 199q0 93 -68 193l133 40q72 -90 72 -190q0 -145 -115 -272zM346 -205q72 99 72 209q0 90 -70 191l137 41q68 -81 68 -191q0 -154 -115 -278z" />
<glyph unicode="&#x2022;" horiz-adv-x="696" d="M145 680q0 104 56 164.5t147 60.5t147 -60t56 -165q0 -103 -56 -162t-147 -59q-90 0 -146.5 60t-56.5 161z" />
<glyph unicode="&#x2026;" horiz-adv-x="1075" d="M102 109q0 54 29 88t74 34q51 0 78.5 -33t27.5 -89q0 -57 -27.5 -91t-80.5 -34q-46 0 -73.5 34.5t-27.5 90.5zM430 109q0 54 29 88t73 34q51 0 79 -33.5t28 -88.5q0 -57 -28 -91t-81 -34q-45 0 -72.5 34.5t-27.5 90.5zM764 109q0 54 29 88t73 34q51 0 79 -33.5t28 -88.5 q0 -57 -28 -91t-81 -34q-45 0 -72.5 34.5t-27.5 90.5z" />
<glyph unicode="&#x202f;" horiz-adv-x="414" />
<glyph unicode="&#x2039;" horiz-adv-x="610" d="M113 520v86l354 422v-190l-229 -273l229 -278v-189z" />
<glyph unicode="&#x203a;" horiz-adv-x="610" d="M143 98v189l230 278l-230 273v190l355 -422v-86z" />
<glyph unicode="&#x205f;" horiz-adv-x="517" />
<glyph unicode="&#x20ac;" d="M125 526v121h102q-2 35 -2 113v51h-100v121h108q13 118 43 217t77.5 177t117.5 121.5t156 43.5q68 0 121 -20t110 -68l-29 -146q-87 78 -184 78q-194 0 -231 -403h321v-121h-325q-2 -53 -2 -164h327v-121h-319q11 -100 32.5 -174.5t44.5 -113.5t52.5 -62.5t50 -29 t41.5 -5.5q115 0 215 82l20 -147q-115 -92 -247 -92q-55 0 -103.5 16.5t-95.5 55.5t-84 100t-65 155t-41 215h-111z" />
<glyph unicode="&#x2122;" horiz-adv-x="1206" d="M111 1317v98h391v-98h-140v-533h-108v533h-143zM569 784l4 631h113q59 -153 121 -356l18 -64h6l19 66l108 354h113l6 -631h-94l-2 326l6 107h-8l-25 -91l-104 -299l-49 -4l-105 314l-24 88h-8l2 -95v-346h-97z" />
<glyph unicode="&#x25fc;" horiz-adv-x="1105" d="M0 0v1106h1106v-1106h-1106z" />
<glyph unicode="&#xfb01;" horiz-adv-x="940" d="M63 969v135h119v92q0 90 17 158.5t45.5 111t70 69t85.5 36.5t98 10q115 0 217 -41l-29 -135q-95 35 -180 35q-81 0 -120.5 -53t-39.5 -183v-100h471v-1104h-166v969h-305v-969h-166v969h-117z" />
<glyph unicode="&#xfb02;" horiz-adv-x="942" d="M63 967v137h119v92q0 112 25 190t71 119t99.5 58.5t122.5 17.5q74 0 166.5 -18.5t150.5 -40.5v-1522h-166v1415q-69 25 -147 25q-74 0 -116 -51t-42 -189v-96h189l-11 -137h-178v-967h-166v967h-117z" />
</font>
</defs>
</svg>
