<?xml version="1.0" standalone="no"?>
<!DOCTYPE svg PUBLIC "-//W3C//DTD SVG 1.1//EN" "http://www.w3.org/Graphics/SVG/1.1/DTD/svg11.dtd" >
<svg xmlns="http://www.w3.org/2000/svg">
<metadata></metadata>
<defs>
<font id="soberana_sans_condensedbold" horiz-adv-x="962" >
<font-face units-per-em="2048" ascent="1577" descent="-471" />
<missing-glyph horiz-adv-x="368" />
<glyph horiz-adv-x="0" />
<glyph horiz-adv-x="682" />
<glyph unicode=" "  horiz-adv-x="368" />
<glyph unicode="&#x09;" horiz-adv-x="368" />
<glyph unicode="&#xa0;" horiz-adv-x="368" />
<glyph unicode="!" horiz-adv-x="557" d="M129 121q0 67 43 106t109 39q64 0 104.5 -38.5t40.5 -106.5q0 -65 -40.5 -102t-104.5 -37q-67 0 -109.5 36t-42.5 103zM129 1528l293 24l-33 -1122h-217z" />
<glyph unicode="&#x22;" horiz-adv-x="696" d="M84 1530l219 22l-43 -485h-139zM393 1530l217 22l-41 -485h-139z" />
<glyph unicode="#" d="M61 387v170l168 -2l21 233h-158v170l176 -2l31 363h164l-27 -363h152l26 363h164l-26 -363l149 2v-170h-172l-14 -233l157 2v-170l-178 2l-28 -369h-166l30 369h-155l-25 -369h-166l27 369zM395 555h154l18 233h-153z" />
<glyph unicode="$" d="M90 80l41 237q132 -114 285 -114q88 0 141 49.5t53 138.5q0 51 -28 96.5t-72 83t-98 75.5t-108 82.5t-98 95t-72 122.5t-28 156q0 162 93 269.5t243 119.5l27 264l203 -22l-27 -254q111 -25 189 -80l-72 -207q-123 86 -230 86q-69 0 -111 -45t-42 -119q0 -47 17 -86.5 t45 -69t65 -56.5t77.5 -53t81.5 -54t78 -65t65 -81t45 -106.5t17 -136.5q0 -185 -101 -297t-255 -125l-20 -273l-207 19l22 266q-58 7 -119.5 31t-99.5 53z" />
<glyph unicode="%" horiz-adv-x="1406" d="M80 1133q0 170 58 264t173 94q114 0 174 -90.5t60 -261.5q0 -180 -60.5 -274.5t-173.5 -94.5q-109 0 -170 89.5t-61 273.5zM240 1126q0 -237 71 -237q72 0 72 248q0 233 -72 233q-71 0 -71 -244zM313 59l598 1432l183 -78l-598 -1431zM862 344q0 169 58.5 263.5 t173.5 94.5q114 0 173.5 -90.5t59.5 -261.5q0 -181 -60 -274.5t-173 -93.5q-110 0 -171 89.5t-61 272.5zM1022 338q0 -238 72 -238q71 0 71 248q0 234 -71 234q-35 0 -53.5 -64.5t-18.5 -179.5z" />
<glyph unicode="&#x26;" horiz-adv-x="1118" d="M37 381q0 265 196 469q-61 160 -61 311q0 195 91 293t233 98q80 0 153.5 -31t126.5 -73l-71 -188q-100 88 -183 88q-56 0 -92.5 -40.5t-36.5 -129.5q0 -137 86.5 -315t216.5 -351q59 143 109 348h229q-66 -263 -182 -516q44 -60 98 -106q34 -31 58.5 -39.5t58.5 -8.5h29 v-188q-54 -20 -101 -20q-86 0 -178 77q-47 41 -92 93q-144 -170 -330 -170q-159 0 -258.5 109.5t-99.5 289.5zM272 393q0 -35 6.5 -68.5t21.5 -66t44 -52.5t68 -20q46 0 91 28.5t75 88.5q-140 173 -236 354q-70 -112 -70 -264z" />
<glyph unicode="'" horiz-adv-x="385" d="M84 1530l219 22l-43 -485h-139z" />
<glyph unicode="(" horiz-adv-x="620" d="M72 684q0 330 121 571t342 324v-215q-209 -212 -209 -676q0 -466 209 -682v-217q-221 82 -342 323t-121 572z" />
<glyph unicode=")" horiz-adv-x="620" d="M86 6q209 216 209 682q0 464 -209 676v215q147 -55 252 -186t158 -312t53 -397q0 -330 -121.5 -571.5t-341.5 -323.5v217z" />
<glyph unicode="*" horiz-adv-x="649" d="M45 1255l82 150l164 -186l-49 294h159l-41 -296l152 186l82 -148l-213 -102l213 -111l-86 -141l-150 186l43 -294h-155l45 294l-156 -186l-82 143l207 109z" />
<glyph unicode="+" d="M109 549v180h286v451h174v-451h287v-180h-287v-449h-174v449h-286z" />
<glyph unicode="," horiz-adv-x="419" d="M51 -215q34 55 52 120t18 120q0 105 -53 202l227 43q53 -90 53 -198q0 -157 -121 -322z" />
<glyph unicode="-" horiz-adv-x="610" d="M35 465v172l538 45v-174z" />
<glyph unicode="." horiz-adv-x="419" d="M72 125q0 66 37 105.5t100 39.5q62 0 101.5 -40t39.5 -105q0 -63 -39.5 -103t-101.5 -40t-99.5 39.5t-37.5 103.5z" />
<glyph unicode="/" horiz-adv-x="843" d="M33 -12l563 1636l213 -76l-563 -1636z" />
<glyph unicode="0" d="M61 743q0 361 107 554.5t315 193.5q207 0 312.5 -194.5t105.5 -544.5q0 -394 -110.5 -582t-311.5 -188q-198 0 -308 189t-110 572zM326 737q0 -277 38 -412t119 -135q154 0 154 558q0 534 -154 534q-157 0 -157 -545z" />
<glyph unicode="1" d="M127 0v211h254v999l-254 -22v174q187 23 420 113h98v-1264h240v-211h-758z" />
<glyph unicode="2" d="M84 160q96 121 159 204t131 183.5t106.5 178t63.5 161t25 157.5q0 222 -161 222q-140 0 -238 -127l-78 202q63 66 155 108t204 42q77 0 144 -22.5t125 -70.5t92 -136.5t34 -208.5q0 -89 -26 -186t-63 -177t-94.5 -171t-103 -152.5t-106.5 -137.5l2 -10h424v-219h-768z " />
<glyph unicode="3" d="M82 121l68 213q128 -135 266 -135q87 0 135.5 60.5t48.5 178.5q0 123 -78 188.5t-203 65.5v142q49 20 85.5 40.5t75 53.5t59 79.5t20.5 104.5q0 79 -38.5 118.5t-94.5 39.5q-70 0 -133.5 -37t-110.5 -100l-73 192q69 77 166.5 121.5t207.5 44.5q162 0 259.5 -91 t97.5 -259q0 -113 -58.5 -193t-144.5 -129v-16q100 -36 167.5 -129t67.5 -240q0 -113 -38 -202t-101.5 -142t-140.5 -80.5t-162 -27.5q-212 0 -348 139z" />
<glyph unicode="4" d="M59 346v168q229 433 553 971l183 -25v-907h100l-18 -207h-82v-346h-242v346h-494zM326 561l2 -10h231v387l8 129l-10 2l-31 -90z" />
<glyph unicode="5" d="M82 123l65 211q135 -135 277 -135q78 0 130 59t52 170q0 66 -23.5 117t-62.5 85.5t-101 60.5t-127 41t-153 28q50 401 76 715h627v-211h-396l-30 -334q456 -84 456 -504q0 -136 -59.5 -238.5t-157.5 -154t-217 -51.5q-97 0 -192.5 40.5t-163.5 100.5z" />
<glyph unicode="6" d="M82 584q0 213 88.5 403.5t240 321.5t337.5 184l53 -201q-155 -66 -275 -193.5t-170 -287.5l11 -4q83 90 208 90q136 0 222 -117t86 -323q0 -119 -31 -211t-85.5 -149t-125 -86t-154.5 -29t-156.5 38.5t-128.5 112t-88 189.5t-32 262zM338 578q0 -170 39.5 -284 t114.5 -114q69 0 104 74t35 201q0 121 -36.5 190.5t-98.5 69.5q-85 0 -158 -113v-24z" />
<glyph unicode="7" d="M88 1249v226h762l41 -93q-13 -46 -103 -328.5t-199 -621.5t-138 -432h-291q58 147 230.5 625t223.5 624h-526z" />
<glyph unicode="8" d="M84 391q0 135 53 233t137 158q-73 63 -116 141.5t-43 192.5q0 180 97.5 277.5t270.5 97.5q184 0 275.5 -100t91.5 -275q0 -113 -45.5 -192t-120.5 -142q195 -139 195 -393q0 -122 -56.5 -216.5t-146.5 -142.5t-197 -48q-172 0 -283.5 112.5t-111.5 296.5zM342 389 q0 -95 40.5 -153t98.5 -58q64 0 102 58t38 155q0 95 -35 156t-107 119q-67 -53 -102 -116t-35 -161zM358 1110q0 -123 125 -227q61 55 92 109.5t31 121.5q0 92 -36 138t-87 46t-88 -46t-37 -142z" />
<glyph unicode="9" d="M82 1022q0 114 31.5 204.5t86.5 147.5t126.5 87t154.5 30q172 0 286 -157.5t114 -432.5q0 -159 -50 -307t-138.5 -265.5t-208.5 -207t-261 -139.5l-61 202q144 69 267.5 198t176.5 300l-10 6q-89 -96 -213 -96q-136 0 -218.5 116t-82.5 314zM336 1024q0 -111 34 -179.5 t97 -68.5q91 0 164 113v37q0 102 -15 183t-51 134t-88 53q-71 0 -106 -75.5t-35 -196.5z" />
<glyph unicode=":" horiz-adv-x="419" d="M72 125q0 66 37 105.5t100 39.5q62 0 101.5 -40t39.5 -105q0 -63 -39.5 -103t-101.5 -40t-99.5 39.5t-37.5 103.5zM72 772q0 65 37.5 105.5t99.5 40.5t101.5 -41t39.5 -105t-39.5 -103.5t-101.5 -39.5q-63 0 -100 39t-37 104z" />
<glyph unicode=";" horiz-adv-x="419" d="M51 -215q34 55 52 120t18 120q0 105 -53 202l227 43q53 -90 53 -198q0 -157 -121 -322zM72 772q0 65 37.5 105.5t99.5 40.5t101.5 -41t39.5 -105t-39.5 -103.5t-101.5 -39.5q-63 0 -100 39t-37 104z" />
<glyph unicode="&#x3c;" d="M133 569v142l692 456v-247l-426 -281l426 -279v-249z" />
<glyph unicode="=" d="M109 346v180h747v-180h-747zM109 754v180h747v-180h-747z" />
<glyph unicode="&#x3e;" d="M141 111v249l426 279l-426 281v247l693 -456v-142z" />
<glyph unicode="?" horiz-adv-x="757" d="M57 1458q153 94 301 94q154 0 243 -101.5t89 -270.5q0 -84 -26 -160t-63 -131t-74 -105t-63 -106t-26 -111q0 -66 23 -137h-242q-33 93 -33 176q0 65 23.5 130t57.5 117.5t68 103t57.5 106t23.5 106.5q0 82 -34 122t-91 40q-80 0 -162 -63zM190 125q0 66 43.5 103.5 t110.5 37.5q63 0 104 -37.5t41 -103.5t-41 -104.5t-104 -38.5q-67 0 -110.5 37.5t-43.5 105.5z" />
<glyph unicode="@" horiz-adv-x="1157" d="M57 492q0 244 67 432.5t198.5 298t310.5 110.5q89 0 169.5 -34.5t148.5 -103.5t108.5 -187t40.5 -271q0 -148 -40 -278.5t-117.5 -213.5t-176.5 -83q-52 0 -82.5 29.5t-40.5 97.5l-12 2q-83 -117 -172 -117q-82 0 -125 89.5t-43 225.5q0 97 17.5 182t52.5 154t94.5 109.5 t136.5 40.5q89 0 166 -68l45 56h57q-59 -533 -59 -601q0 -61 33 -61q24 0 53 31t55.5 84.5t44 138.5t17.5 182q0 248 -105.5 375t-269.5 127q-149 -1 -258 -99t-164 -264.5t-55 -379.5q0 -300 109.5 -467.5t301.5 -167.5q206 0 371 176l45 -90q-84 -95 -192 -140t-224 -45 q-234 0 -370 198.5t-136 531.5zM467 508q0 -180 57 -180q27 0 56.5 27t54.5 69l33 364q-26 37 -70 37q-41 0 -71.5 -48.5t-45 -119t-14.5 -149.5z" />
<glyph unicode="A" horiz-adv-x="1163" d="M29 0q37 126 209.5 743.5t226.5 792.5h227q17 -67 209 -729.5t236 -806.5h-277q-24 81 -110 440h-347l-104 -440h-270zM451 641h249q-29 121 -86 371l-32 172h-11l-32 -174z" />
<glyph unicode="B" horiz-adv-x="976" d="M92 0v1536h430q359 0 359 -385q0 -116 -50.5 -195t-130.5 -122v-15q103 -37 169.5 -129t66.5 -250q0 -206 -96 -323t-297 -117h-451zM362 186h117q92 0 137.5 71.5t45.5 191.5q0 126 -49 194t-138 68h-113v-525zM362 887h82q72 0 116 68.5t44 177.5q0 105 -35 161 t-104 56h-103v-463z" />
<glyph unicode="C" horiz-adv-x="1009" d="M57 752q0 201 42 356t117 251t174 144.5t218 48.5q88 0 182.5 -26.5t159.5 -83.5l-47 -213q-55 48 -125 75t-131 27q-144 0 -224.5 -143.5t-80.5 -429.5q0 -280 86 -414.5t229 -134.5q69 0 143.5 23.5t129.5 66.5l28 -213q-133 -104 -333 -104q-89 0 -169.5 25.5 t-154 83.5t-127 145t-85.5 219.5t-32 296.5z" />
<glyph unicode="D" horiz-adv-x="1132" d="M92 0v1536h436q547 0 547 -768q0 -362 -132.5 -565t-393.5 -203h-457zM358 211h142q75 0 131 41.5t90 117.5t50.5 176.5t16.5 225.5q0 296 -73 424.5t-221 128.5h-136v-1114z" />
<glyph unicode="E" horiz-adv-x="804" d="M92 0v1536h651v-211h-376v-453h282l-24 -192h-258v-469h383v-211h-658z" />
<glyph unicode="F" horiz-adv-x="798" d="M92 0v1536h670v-211h-395v-465h319l-22 -194h-297v-666h-275z" />
<glyph unicode="G" horiz-adv-x="1110" d="M57 754q0 207 46 363.5t128.5 250t187 139t230.5 45.5q98 0 194 -29t163 -81l-45 -213q-140 102 -285 102q-70 0 -128.5 -32.5t-105.5 -99t-73.5 -179t-26.5 -262.5q0 -267 86 -410t229 -143q83 0 127 49v350h-94v176h342v-674q-168 -124 -399 -124q-119 0 -221.5 47 t-182.5 139t-126 242.5t-46 343.5z" />
<glyph unicode="H" horiz-adv-x="1163" d="M92 0v1536h270v-629h439v629h270v-1536h-270v694h-439v-694h-270z" />
<glyph unicode="I" horiz-adv-x="456" d="M92 0v1536h273v-1536h-273z" />
<glyph unicode="J" horiz-adv-x="628" d="M43 211q39 -16 100 -16q73 0 98 55.5t25 198.5v878h-110v209h389v-1130q0 -228 -75.5 -326t-256.5 -98q-82 0 -156 20z" />
<glyph unicode="K" horiz-adv-x="1067" d="M92 0v1536h270v-627h93q146 325 256 627h297q-100 -275 -320 -721q139 -400 230 -567q21 -38 46.5 -52t65.5 -14v-180q-75 -20 -133 -20q-72 0 -119.5 26.5t-87.5 95.5q-37 64 -114.5 256.5t-122.5 335.5h-91v-696h-270z" />
<glyph unicode="L" horiz-adv-x="813" d="M92 0v1536h275v-1325h405v-211h-680z" />
<glyph unicode="M" horiz-adv-x="1423" d="M78 0l45 1536h270q164 -477 285 -881l29 -120h10l31 120q130 390 264 881h282l49 -1536h-249l-25 930l4 151h-10l-33 -149q-31 -112 -74.5 -252.5t-77 -240.5t-67.5 -201.5t-39 -118.5q-2 0 -35.5 -5t-62.5 -8.5t-37 -3.5q-22 65 -54.5 167.5t-57 184.5t-72.5 242 l-72 240l-39 158l-10 -2l6 -166l-16 -926h-244z" />
<glyph unicode="N" horiz-adv-x="1191" d="M92 0v1536h223q19 -35 124 -226t197 -361.5t163 -307.5l47 -111l10 2l-6 119l-4 885h254v-1534l-170 -20q-343 612 -529 981l-55 143h-8l6 -156l4 -950h-256z" />
<glyph unicode="O" horiz-adv-x="1193" d="M57 770q0 377 136.5 579.5t404.5 202.5q265 0 402 -201.5t137 -572.5q0 -403 -140 -599.5t-399 -196.5q-260 0 -400.5 197t-140.5 591zM336 772q0 -586 260 -586q131 0 196.5 139t65.5 451q0 298 -66.5 435t-195.5 137q-260 0 -260 -576z" />
<glyph unicode="P" horiz-adv-x="958" d="M92 0v1536h422q195 0 299.5 -124t104.5 -335q0 -235 -118 -375.5t-337 -140.5q-42 0 -96 8v-569h-275zM367 784q27 -8 71 -8q105 0 159 67t54 226q0 131 -54.5 193.5t-143.5 62.5h-86v-541z" />
<glyph unicode="Q" horiz-adv-x="1193" d="M57 770q0 377 136.5 580.5t404.5 203.5q265 0 402 -202t137 -574q0 -630 -342 -762q66 -76 143.5 -127t151.5 -51q29 0 65 4v-172q-64 -24 -141 -24q-85 0 -191 57t-190.5 130.5t-165.5 162.5q-199 45 -304.5 238.5t-105.5 535.5zM336 772q0 -586 260 -586 q131 0 196.5 139t65.5 451q0 574 -262 574q-260 0 -260 -578z" />
<glyph unicode="R" horiz-adv-x="1007" d="M92 0v1536h383q197 0 303.5 -112.5t106.5 -331.5q0 -148 -44.5 -245t-133.5 -163q55 -156 163 -432q17 -42 39 -57t52 -15h26v-180q-59 -18 -133 -18q-60 0 -100 18t-72 70q-61 103 -215 538h-105v-608h-270zM362 813h72q87 0 131.5 62t44.5 206q0 129 -42.5 186.5 t-123.5 57.5h-82v-512z" />
<glyph unicode="S" horiz-adv-x="894" d="M49 111l39 219q68 -58 149.5 -93.5t161.5 -35.5q81 0 125.5 58t44.5 147q0 42 -13 80t-31.5 64.5t-51.5 56t-59.5 48.5t-70 49t-69.5 50q-47 36 -80.5 70.5t-64.5 82.5t-47 109.5t-16 136.5q0 192 106 295.5t289 103.5q80 0 173 -26.5t159 -71.5l-48 -205 q-55 37 -124.5 61.5t-131.5 24.5q-72 0 -114.5 -45t-42.5 -133q0 -59 34 -110.5t77.5 -83.5t113 -81.5t111.5 -88.5q77 -72 120 -159.5t43 -213.5q0 -213 -114 -324.5t-301 -111.5q-104 0 -199.5 35.5t-167.5 91.5z" />
<glyph unicode="T" horiz-adv-x="1021" d="M43 1325v211h936v-211h-332v-1325h-274v1325h-330z" />
<glyph unicode="U" horiz-adv-x="1132" d="M78 604v932h274v-938q0 -213 53.5 -304t159.5 -91q85 0 130 33.5t66 118t21 243.5v938h275v-924q0 -144 -20.5 -251t-59.5 -179.5t-100.5 -117t-137.5 -63.5t-176 -19q-119 0 -204 28.5t-150.5 97t-98 192t-32.5 304.5z" />
<glyph unicode="V" horiz-adv-x="1110" d="M23 1536h272q58 -300 225 -1040l29 -154h10l33 158q90 385 225 1036h273q-59 -247 -206.5 -799t-201.5 -737h-260q-81 294 -210 784t-189 752z" />
<glyph unicode="W" horiz-adv-x="1634" d="M27 1536h278q119 -715 180 -1020l27 -156h6l31 156l172 670l-12 47q-18 68 -36 90.5t-50 24.5v186q58 8 112 8q73 0 121 -36.5t72 -139.5q3 -12 37 -160.5t79 -357.5t66 -326l18 -153h11l24 157q42 216 102.5 609.5t61.5 400.5h275q-65 -337 -175.5 -860.5t-152.5 -675.5 h-275q-96 420 -147 678l-21 137h-6l-26 -139q-153 -622 -168 -676h-266q-51 205 -167.5 731.5t-170.5 804.5z" />
<glyph unicode="X" horiz-adv-x="1107" d="M23 0q60 139 179 402.5t169 381.5q-3 9 -82.5 218t-93.5 237q-28 54 -54 77t-59 23v193q66 8 125 8q74 0 124 -36.5t83 -129.5q52 -137 100 -287l39 -126l8 -3l47 127q27 67 164 451h291q-59 -151 -119 -287.5t-132 -288.5t-81 -172q114 -297 221 -530q20 -44 50.5 -61 t74.5 -17v-180q-14 -6 -62 -12t-71 -6q-70 0 -114 24t-76 94q-72 161 -162 392l-37 114h-10l-39 -117q-22 -60 -87 -224.5t-102 -264.5h-294z" />
<glyph unicode="Y" horiz-adv-x="1026" d="M31 1335v197q54 8 106 8q73 0 125.5 -37.5t85.5 -132.5q0 -2 20 -54.5t51 -135t50 -133.5l35 -103h8l33 103q12 33 44 123t63.5 181t60.5 185h293q-51 -133 -123 -302.5t-147 -339t-97 -222.5v-672h-272v688q-28 71 -232 551q-41 96 -104 96z" />
<glyph unicode="Z" horiz-adv-x="995" d="M47 0v111q55 138 150.5 348.5t239.5 515.5t159 338l-2 12h-510v211h817l35 -102q-53 -116 -169.5 -362.5t-213 -456.5t-174.5 -392l2 -12h565v-211h-899z" />
<glyph unicode="[" horiz-adv-x="663" d="M143 -203v1774h422v-207h-174v-1360h174v-207h-422z" />
<glyph unicode="\" horiz-adv-x="843" d="M33 1548l213 76l563 -1636l-213 -76z" />
<glyph unicode="]" horiz-adv-x="663" d="M98 4h174v1360h-174v207h422v-1774h-422v207z" />
<glyph unicode="^" d="M98 553l314 938h143l313 -938h-194l-191 649l-188 -649h-197z" />
<glyph unicode="_" d="M-10 -254h983v-176h-983v176z" />
<glyph unicode="`" horiz-adv-x="741" d="M178 1677l197 107l188 -457l-102 -59z" />
<glyph unicode="a" horiz-adv-x="921" d="M49 303q0 110 43.5 168t136.5 92q54 21 171 57t145 46v61q0 209 -129 209q-118 0 -281 -98l-47 166q78 56 176.5 86t177.5 30q38 0 70 -3.5t70 -14.5t68.5 -28.5t60 -48.5t49 -72.5t31.5 -101.5t12 -134v-477q0 -70 41 -70q12 0 28 2t17 2l10 -147q-95 -45 -201 -45 q-66 0 -96.5 33.5t-42.5 111.5l-10 4q-123 -149 -256 -149q-98 0 -171 89.5t-73 231.5zM315 328q0 -72 29 -122t70 -50q30 0 66 34.5t65 92.5v249q-104 -42 -162 -75q-68 -35 -68 -129z" />
<glyph unicode="b" horiz-adv-x="950" d="M86 0v1577h258v-381l-6 -217l10 -2q95 143 223 143q99 0 173 -73t111.5 -195.5t37.5 -276.5q0 -593 -395 -593q-71 0 -154 22t-149 59l-39 -63h-70zM344 213q63 -47 119 -47q83 0 123.5 104.5t40.5 282.5q0 166 -33.5 266.5t-101.5 100.5q-41 0 -80.5 -38t-67.5 -102 v-567z" />
<glyph unicode="c" horiz-adv-x="770" d="M57 539q0 101 10 183t36 158t68.5 127.5t110.5 82t158 30.5q71 0 147 -18.5t126 -50.5l-37 -199q-37 25 -91.5 43t-95.5 18q-85 0 -125 -89.5t-40 -276.5q0 -76 9 -138.5t28.5 -114t54.5 -80t84 -28.5q101 0 196 52l33 -185q-101 -71 -274 -71q-185 0 -291.5 141.5 t-106.5 415.5z" />
<glyph unicode="d" horiz-adv-x="942" d="M57 532q0 292 106.5 440t274.5 148q85 0 160 -43v500h258v-1577h-217l-29 135l-8 2q-52 -75 -103 -115t-126 -40q-97 0 -169.5 74.5t-109.5 198.5t-37 277zM324 545q0 -164 37.5 -267.5t97.5 -103.5q86 0 139 131v561q-35 66 -111 66q-45 0 -78 -31.5t-51 -88t-26 -122.5 t-8 -145z" />
<glyph unicode="e" horiz-adv-x="876" d="M57 539q0 129 23.5 231t62 166.5t92.5 107t111 59.5t121 17q170 0 266 -117.5t96 -359.5q0 -28 -4 -82h-501v-26q0 -177 50 -268t175 -91q115 0 235 60l25 -177q-160 -75 -320 -75q-67 0 -127.5 17t-117 58.5t-97.5 103.5t-65.5 158.5t-24.5 217.5zM328 692h250 q0 264 -109 264q-58 0 -95 -66t-46 -198z" />
<glyph unicode="f" horiz-adv-x="638" d="M27 926v178h120v78q0 95 15.5 166.5t42.5 116.5t67.5 72.5t85.5 38.5t103 11q117 0 209 -43l-37 -180q-69 31 -127 31q-63 0 -81.5 -44t-18.5 -155v-92h196l-18 -178h-178v-926h-259v926h-120z" />
<glyph unicode="g" horiz-adv-x="958" d="M29 -190q0 51 12 92t36.5 71.5t43.5 48t49 39.5v15q-98 43 -98 145q0 144 180 234l-2 12q-80 34 -128 114t-48 185q0 177 98 265.5t266 88.5q101 0 171 -31t106 -79h16q2 33 5 51.5t12 37.5t27 27.5t46 8.5q48 0 117 -31l-14 -133q-41 8 -78 8q-19 0 -32 -5.5t-20 -12 t-10 -23t-3.5 -28.5t-0.5 -38q25 -55 25 -127q0 -158 -98 -242.5t-265 -84.5q-33 0 -47 2q-38 -21 -68 -61.5t-30 -90.5q0 -42 23.5 -61t60.5 -19h207q330 0 330 -286q0 -65 -18.5 -119t-49 -92t-73.5 -67t-88 -46.5t-97 -29t-96 -15.5t-88 -4q-35 0 -72.5 5t-82 16 t-83 32.5t-71 51t-51.5 75t-19 101.5zM287 -156q0 -46 15 -77.5t41 -46.5t51.5 -21t54.5 -6q37 0 71.5 10t67 31.5t52 62t19.5 94.5q0 60 -32.5 94.5t-89.5 34.5h-140q-34 -8 -72 -57t-38 -119zM332 768q0 -84 27.5 -143.5t80.5 -59.5q113 0 113 205q0 207 -109 207 q-112 0 -112 -209z" />
<glyph unicode="h" horiz-adv-x="933" d="M86 0v1577h258v-383l-6 -231l10 -2q101 159 266 159q250 0 250 -409v-711h-258v678q0 72 -7.5 119t-22.5 71t-32.5 32.5t-43.5 8.5q-46 0 -88 -38t-68 -105v-766h-258z" />
<glyph unicode="i" horiz-adv-x="430" d="M70 1491q0 69 39 108t104 39q67 0 107 -38t40 -109t-39 -111.5t-106 -40.5q-66 0 -105.5 40.5t-39.5 111.5zM86 0v1104h258v-1104h-258z" />
<glyph unicode="j" horiz-adv-x="505" d="M4 -256q28 -12 59 -12q56 0 76.5 45.5t20.5 152.5v990h-105v184h361v-1190q0 -385 -287 -385q-73 0 -113 16zM131 1491q0 69 38.5 108t104.5 39q68 0 108 -38.5t40 -108.5q0 -71 -39.5 -111.5t-106.5 -40.5q-66 0 -105.5 40.5t-39.5 111.5z" />
<glyph unicode="k" horiz-adv-x="942" d="M86 0v1577h258v-848h66q43 68 174 375h272q-30 -68 -70.5 -150t-92 -181.5t-62.5 -121.5q9 -44 149 -383q38 -92 80 -92q23 0 37 2v-176q-68 -20 -121 -20q-124 0 -196 149q-21 40 -80 183t-82 212h-74v-526h-258z" />
<glyph unicode="l" horiz-adv-x="430" d="M86 0v1577h258v-1577h-258z" />
<glyph unicode="m" horiz-adv-x="1429" d="M86 0v1104h223l23 -143l12 -3q110 162 260 162q77 0 128.5 -40t86.5 -130l15 -2q109 172 268 172q258 0 258 -399v-721h-258v686q0 124 -26.5 172.5t-80.5 48.5q-42 0 -80 -35.5t-63 -97.5v-774h-256v674q0 132 -24.5 182.5t-77.5 50.5q-42 0 -84.5 -40.5t-65.5 -102.5 v-764h-258z" />
<glyph unicode="n" horiz-adv-x="933" d="M86 0v1104h223l23 -141l14 -2q101 159 268 159q250 0 250 -409v-711h-258v678q0 95 -13.5 147t-34.5 68t-56 16q-46 0 -89 -38t-69 -105v-766h-258z" />
<glyph unicode="o" horiz-adv-x="944" d="M57 553q0 279 106.5 423t311.5 144q412 0 412 -569q0 -295 -109 -431t-305 -136q-194 0 -305 138.5t-111 430.5zM324 553q0 -381 151 -381q73 0 109.5 89.5t36.5 289.5q0 207 -37 292t-109 85q-35 0 -60.5 -16.5t-47 -56t-32.5 -115.5t-11 -187z" />
<glyph unicode="p" horiz-adv-x="942" d="M86 -471v1575h219l27 -131l12 -2q49 73 99 111t126 38q97 0 169.5 -74t109.5 -196.5t37 -274.5q0 -292 -103 -442.5t-274 -150.5q-84 0 -164 41v-494h-258zM344 240q53 -47 111 -47q163 0 163 370q0 157 -36.5 252.5t-96.5 95.5q-40 0 -76.5 -37.5t-64.5 -99.5v-534z" />
<glyph unicode="q" horiz-adv-x="950" d="M57 528q0 592 406 592q146 0 278 -76l50 60h73v-1575h-258v387l6 209l-8 2q-49 -68 -100 -106.5t-125 -38.5q-99 0 -173 74.5t-111.5 197.5t-37.5 274zM324 549q0 -157 34.5 -265t98.5 -108q42 0 81.5 37t67.5 100v576q-52 49 -117 49q-43 0 -75.5 -31t-51.5 -86 t-28.5 -123.5t-9.5 -148.5z" />
<glyph unicode="r" horiz-adv-x="690" d="M86 0v1104h217l29 -170h10q139 186 236 186q72 0 96 -59l-60 -211q-30 24 -69 24q-46 0 -106.5 -56t-94.5 -118v-700h-258z" />
<glyph unicode="s" horiz-adv-x="759" d="M41 57l29 195q56 -28 130 -49t128 -21q123 0 123 105q0 35 -22 66.5t-57 57t-77.5 52t-85 58.5t-77.5 69t-57 91t-22 118q0 82 29 145t80 100.5t115.5 56.5t140.5 19q75 0 148.5 -16t115.5 -39l-37 -186q-104 51 -213 51q-121 0 -121 -99q0 -34 22 -64t57.5 -55t78 -51 t85 -58t78 -70.5t57.5 -95t22 -124.5q0 -86 -30.5 -151.5t-84 -103.5t-118.5 -57t-140 -19q-154 0 -297 75z" />
<glyph unicode="t" horiz-adv-x="698" d="M16 922v182h129l60 276h194v-276h236l-14 -182h-222v-578q0 -74 17 -110.5t65 -36.5q71 0 152 43l33 -193q-142 -63 -265 -63q-132 0 -196 84t-64 268v586h-125z" />
<glyph unicode="u" horiz-adv-x="937" d="M72 389v715h258v-694q0 -134 27 -185t85 -51q45 0 87.5 35t64.5 98v797h258v-1104h-215l-29 133l-14 2q-52 -76 -121.5 -114.5t-142.5 -38.5q-119 0 -188.5 102t-69.5 305z" />
<glyph unicode="v" horiz-adv-x="905" d="M23 1104h260q27 -115 76 -313t67 -279l25 -164h12q4 20 11.5 80t12.5 88q12 60 30 140.5t32 138t39.5 162t36.5 147.5h260q-71 -237 -183.5 -628t-134.5 -476h-225q-6 20 -81.5 280t-144 496t-93.5 328z" />
<glyph unicode="w" horiz-adv-x="1267" d="M23 1104h245q20 -98 59 -303t54 -277l27 -194h10l39 174l96 354q-12 51 -27 70.5t-39 19.5v156q56 6 113 6q68 0 103 -32.5t57 -116.5q38 -147 100 -461l25 -160h10l18 158l107 606h227q-47 -242 -132 -600t-126 -504h-194q-66 232 -127 481l-21 117h-8l-25 -119 l-141 -479h-184q-127 494 -266 1104z" />
<glyph unicode="x" horiz-adv-x="950" d="M33 0q30 71 75.5 170.5t80.5 174.5t68.5 146.5t35.5 75.5q-74 187 -123 291q-20 43 -42 60.5t-54 17.5v166q62 8 104 8q77 0 123.5 -29t81.5 -114q45 -109 66 -170l28 -88h10l31 88l119 307h260q-95 -243 -231 -520q73 -195 131 -322q36 -79 100 -82v-182 q-54 -16 -111 -16q-68 0 -110.5 33t-79.5 120q-60 139 -96 230l-23 71h-8l-25 -74l-143 -362h-268z" />
<glyph unicode="y" horiz-adv-x="956" d="M37 913v197q59 6 102 6q84 0 123 -30.5t68 -137.5q13 -49 55.5 -236.5t69.5 -326.5l12 -117h12l17 103l166 733h270q-149 -555 -453 -1575h-264l166 471h-62q-157 665 -210 840q-12 41 -27 56t-45 17z" />
<glyph unicode="z" horiz-adv-x="821" d="M49 0v100q263 544 395 805l-2 13h-374v186h671l27 -109q-63 -125 -195 -398.5t-184 -393.5l2 -15h381v-188h-721z" />
<glyph unicode="{" horiz-adv-x="712" d="M57 600v168q75 18 103 60t28 145v297q0 163 57 232t179 69h190v-207h-55q-46 0 -69 -8.5t-37.5 -41t-14.5 -97.5v-256q0 -211 -133 -273v-6q133 -65 133 -274v-256q0 -94 26.5 -121t94.5 -27h55v-207h-190q-122 0 -179 69t-57 232v295q0 103 -28 146t-103 61z" />
<glyph unicode="|" horiz-adv-x="577" d="M174 -307v2150h229v-2150h-229z" />
<glyph unicode="}" horiz-adv-x="712" d="M98 4h56q46 0 69 9t37 41.5t14 97.5v256q0 209 134 274v6q-134 62 -134 273v256q0 94 -26 120.5t-94 26.5h-56v207h191q122 0 178.5 -69t56.5 -232v-297q0 -103 28 -145t103 -60v-168q-75 -18 -103 -61t-28 -146v-295q0 -163 -56.5 -232t-178.5 -69h-191v207z" />
<glyph unicode="~" d="M129 502q0 80 16 138.5t43.5 89.5t57.5 44.5t63 13.5q53 0 173 -48t145 -48q55 0 55 103h156q0 -80 -16.5 -139t-44 -89.5t-57.5 -44.5t-63 -14q-53 0 -172.5 48t-144.5 48q-55 0 -55 -102h-156z" />
<glyph unicode="&#xa1;" horiz-adv-x="557" d="M129 1028q0 65 40.5 102t104.5 37q67 0 109.5 -36t42.5 -103t-43 -106t-109 -39q-64 0 -104.5 38.5t-40.5 106.5zM133 -403l33 1122h217l43 -1098z" />
<glyph unicode="&#xa2;" d="M98 743q0 132 21.5 244.5t66 205.5t120.5 150t177 68l23 264l207 -16l-23 -260q92 -20 174 -74l-47 -207q-40 28 -103 51t-118 23q-199 0 -199 -444q0 -198 54.5 -308t144.5 -110q98 0 233 57l43 -203q-123 -66 -294 -80l-21 -264l-207 17l23 276q-135 54 -205 209 t-70 401z" />
<glyph unicode="&#xa3;" d="M104 0v129q72 27 116 104t44 185q0 41 -2 61h-151v148h139l-12 141h-127v150h114q0 6 -1 38t-1 39q0 108 20.5 193t56 141t85.5 93t106 53t121 16q60 0 129 -14.5t113 -34.5l-41 -189q-92 33 -158 33q-93 0 -129.5 -66.5t-36.5 -213.5q0 -8 2.5 -44.5t2.5 -43.5h286v-150 h-280l12 -141h268v-148h-258q2 -18 2 -55q0 -67 -22.5 -132t-69.5 -108h453v-184h-781z" />
<glyph unicode="&#xa4;" d="M61 279l111 163q-37 119 -37 273q0 158 41 276l-115 162l123 127l107 -156q85 82 192 82q114 0 193 -82l102 156l125 -125l-112 -164q40 -118 40 -272q0 -161 -40 -277l112 -161l-123 -127l-104 155q-84 -84 -193 -84q-112 0 -194 82l-103 -153zM307 731 q0 -132 49.5 -214.5t128.5 -82.5q82 0 128 86.5t46 220.5q0 130 -50 212.5t-128 82.5q-83 0 -128.5 -85t-45.5 -220z" />
<glyph unicode="&#xa5;" d="M66 1284v199q54 8 79 8q126 0 191 -172q33 -90 113 -363l20 -102h10l27 102q83 255 158 519h251q-184 -527 -286 -773h188v-149h-211v-141h211v-150h-211v-262h-260v262h-217v150h217v141h-217v149h182q-43 147 -159 490q-15 45 -37.5 68.5t-48.5 23.5z" />
<glyph unicode="&#xa6;" horiz-adv-x="577" d="M174 -307v792h229v-792h-229zM174 1053v790h229v-790h-229z" />
<glyph unicode="&#xa7;" horiz-adv-x="923" d="M49 641q0 103 48.5 186t144.5 131q-99 115 -99 242q0 171 100 261.5t265 90.5q85 0 177 -22t165 -60l-37 -200q-68 35 -147 57.5t-138 22.5q-131 0 -131 -131q0 -40 26 -78t67 -70.5t91 -67t100.5 -75.5t91.5 -88t67 -111.5t26 -138.5q0 -103 -49 -186.5t-145 -133.5 q100 -107 100 -239q0 -171 -100 -262t-264 -91q-85 0 -177 22t-165 60l36 201q68 -35 147 -57.5t138 -22.5q131 0 131 131q0 40 -26 78t-67 70.5t-91 67t-100.5 75.5t-91.5 88t-67 111.5t-26 138.5zM315 668q0 -39 14.5 -73.5t49.5 -70.5t59.5 -56.5t77.5 -61.5 q84 57 84 157q0 32 -12.5 62.5t-26.5 51.5t-48.5 52.5t-51 45t-62.5 48.5q-84 -55 -84 -155z" />
<glyph unicode="&#xa8;" horiz-adv-x="741" d="M45 1475q0 65 35 106t94 41q56 0 90.5 -41t34.5 -106q0 -66 -34 -107t-91 -41q-59 0 -94 40.5t-35 107.5zM442 1475q0 65 35 106t94 41q56 0 90.5 -41t34.5 -106q0 -66 -34 -107t-91 -41q-59 0 -94 40.5t-35 107.5z" />
<glyph unicode="&#xa9;" horiz-adv-x="1216" d="M57 770q0 223 74 403.5t200 280.5t277 100t277 -100t200 -281t74 -405t-74 -405.5t-200 -282t-277 -100.5q-113 0 -214.5 59.5t-175.5 163t-117.5 251t-43.5 316.5zM152 766q0 -199 59 -357t164 -246.5t235 -88.5t234 89t162.5 247t58.5 356q0 304 -128.5 499t-326.5 195 q-131 0 -235.5 -88t-163.5 -247t-59 -359zM301 770q0 225 95 344t243 119q116 0 195 -64l-23 -145q-63 57 -149 57q-85 0 -131 -86t-46 -223q0 -142 47 -219.5t127 -77.5q41 0 88.5 14t77.5 35l13 -139q-76 -63 -199 -63q-144 0 -241 114.5t-97 333.5z" />
<glyph unicode="&#xaa;" horiz-adv-x="606" d="M41 946q0 68 26.5 107t82.5 63q16 7 190 66v37q0 54 -16 79t-58 25q-93 0 -172 -53l-31 108q51 35 118 54.5t118 19.5q34 0 61.5 -5t56.5 -20.5t48.5 -42t32 -72.5t12.5 -108v-272q0 -23 3.5 -33t16.5 -10q11 0 27 4l6 -92q-68 -31 -125 -31q-78 0 -90 86l-10 2 q-38 -49 -72.5 -68.5t-79.5 -19.5q-60 0 -102.5 46.5t-42.5 129.5zM213 958q0 -29 15.5 -47t37.5 -18q41 0 74 65v123q-10 -3 -45.5 -21t-48.5 -26q-33 -21 -33 -76z" />
<glyph unicode="&#xab;" horiz-adv-x="985" d="M72 518v109l393 444v-278l-191 -222l191 -219v-280zM473 518v109l393 444v-278l-192 -222l192 -219v-280z" />
<glyph unicode="&#xac;" d="M109 754v180h747v-572h-172v392h-575z" />
<glyph unicode="&#xad;" horiz-adv-x="610" d="M35 465v172l538 45v-174z" />
<glyph unicode="&#xae;" horiz-adv-x="747" d="M78 1151q0 183 83 293t214 110q130 0 213.5 -110t83.5 -293q0 -187 -83.5 -297.5t-213.5 -110.5q-131 0 -214 111t-83 297zM154 1157q0 -161 60 -248.5t165 -87.5q101 0 159 90t58 240q0 149 -59 237.5t-162 88.5q-101 0 -161 -87t-60 -233zM266 983v375h107 q48 0 80 -27.5t32 -87.5q0 -74 -47 -106q12 -29 37 -82q11 -19 31 -19v-53q-30 -6 -49 -6q-9 0 -16.5 4t-14.5 13t-13 18t-12.5 24t-11 26.5t-11.5 29.5t-11 28h-23v-137h-78zM344 1186h18q50 0 50 53q0 49 -43 49h-25v-102z" />
<glyph unicode="&#xaf;" horiz-adv-x="741" d="M111 1335v201h520v-201h-520z" />
<glyph unicode="&#xb0;" horiz-adv-x="585" d="M80 1198q0 128 62 210.5t153 82.5q90 0 150.5 -82.5t60.5 -206.5q0 -128 -62 -210.5t-153 -82.5q-90 0 -150.5 82.5t-60.5 206.5zM197 1198q0 -73 27 -117.5t69 -44.5q45 0 70.5 44.5t25.5 123.5q0 73 -27 117.5t-69 44.5q-45 0 -70.5 -44.5t-25.5 -123.5z" />
<glyph unicode="&#xb1;" d="M119 94v180h727v-180h-727zM119 791v182h276v385h174v-385h277v-182h-277v-363h-174v363h-276z" />
<glyph unicode="&#xb2;" horiz-adv-x="573" d="M51 874q111 103 182.5 207t71.5 187q0 88 -78 88q-62 0 -127 -58l-43 121q36 30 93 51t118 21q91 0 154 -56t63 -171q0 -98 -50.5 -180.5t-135.5 -163.5v-9h205v-127h-438z" />
<glyph unicode="&#xb3;" horiz-adv-x="573" d="M57 838l39 116q28 -27 71 -45t81 -18q84 0 84 104q0 51 -41.5 80t-102.5 29v76q123 43 123 120q0 33 -17.5 50.5t-41.5 17.5q-76 0 -137 -61l-43 102q93 82 215 82q94 0 148 -46t54 -126q0 -100 -92 -152v-8q47 -19 78 -63t31 -111q0 -102 -69.5 -158.5t-170.5 -56.5 q-122 0 -209 68z" />
<glyph unicode="&#xb4;" horiz-adv-x="741" d="M178 1327l189 457l196 -107l-282 -409z" />
<glyph unicode="&#xb5;" horiz-adv-x="1015" d="M86 424v680h262v-692q0 -120 25 -178t86 -58q41 0 80.5 41t64.5 100v787h262v-821q0 -99 37 -99q28 0 58 49l49 -112q-48 -65 -107.5 -102t-120.5 -37q-57 0 -100.5 39.5t-56.5 107.5l-13 4q-74 -151 -172 -151q-66 0 -110 75q9 -262 45 -460l-240 -54q-49 282 -49 881z " />
<glyph unicode="&#xb6;" horiz-adv-x="1335" d="M49 1018q0 112 28 205.5t83 164t143 109.5t201 39h774v-217h-135v-1626h-273v1628h-104v-1628h-268v829q-213 0 -331 133.5t-118 362.5zM307 1022q0 -76 17.5 -137t62 -103.5t111.5 -42.5v582q-97 -1 -144 -80t-47 -219z" />
<glyph unicode="&#xb7;" horiz-adv-x="419" d="M72 670q0 65 37 105t100 40q62 0 101.5 -40.5t39.5 -104.5t-39.5 -104t-101.5 -40q-63 0 -100 39.5t-37 104.5z" />
<glyph unicode="&#xb8;" horiz-adv-x="741" d="M195 -426l24 92q20 -16 51.5 -28.5t59.5 -12.5q61 0 61 72q0 37 -23.5 56.5t-66.5 19.5h-49l-23 59l129 168h158l-92 -119q125 -27 125 -170q0 -74 -54.5 -132t-138.5 -58q-94 0 -161 53z" />
<glyph unicode="&#xb9;" horiz-adv-x="573" d="M84 784v119h127v434l-127 -10v96q97 10 233 58h60v-580h127v-117h-420z" />
<glyph unicode="&#xba;" horiz-adv-x="567" d="M41 1112q0 340 246 340q118 0 178.5 -86t60.5 -254q0 -342 -239 -342q-246 0 -246 342zM203 1114q0 -121 20.5 -170t61.5 -49q39 0 59.5 49t20.5 168q0 215 -78 215q-41 0 -62.5 -47t-21.5 -166z" />
<glyph unicode="&#xbb;" horiz-adv-x="985" d="M119 72v278l192 221l-192 220v280l393 -446v-109zM520 72v278l191 221l-191 220v280l393 -446v-109z" />
<glyph unicode="&#xbc;" horiz-adv-x="1419" d="M80 784v119h127v434l-127 -10v96q97 10 233 58h60v-580h127v-117h-420zM371 59l598 1432l182 -78l-598 -1431zM901 152v92q191 313 287 456l127 -10v-424h49l-10 -114h-39v-152h-148v152h-266zM1061 272l2 -6h106v168l2 37l-8 2l-16 -37z" />
<glyph unicode="&#xbd;" horiz-adv-x="1419" d="M80 784v119h127v434l-127 -10v96q97 10 233 58h60v-580h127v-117h-420zM311 59l598 1432l183 -78l-598 -1431zM899 90q111 103 182.5 206.5t71.5 186.5q0 88 -78 88q-63 0 -127 -57l-43 121q36 30 93 51t118 21q91 0 154 -56.5t63 -171.5q0 -98 -50.5 -180.5 t-135.5 -163.5v-8h205v-127h-439z" />
<glyph unicode="&#xbe;" horiz-adv-x="1419" d="M53 838l39 116q28 -27 71 -45t81 -18q84 0 84 104q0 51 -41.5 80t-102.5 29v76q123 43 123 120q0 33 -17.5 50.5t-41.5 17.5q-76 0 -137 -61l-43 102q93 82 215 82q94 0 148 -46t54 -126q0 -100 -92 -152v-8q47 -19 78 -63t31 -111q0 -102 -69.5 -158.5t-170.5 -56.5 q-122 0 -209 68zM352 59l598 1432l183 -78l-598 -1431zM901 152v92q191 313 287 456l127 -10v-424h49l-10 -114h-39v-152h-148v152h-266zM1061 272l2 -6h106v168l2 37l-8 2l-16 -37z" />
<glyph unicode="&#xbf;" horiz-adv-x="745" d="M57 -31q0 84 26 160t63 131t74 105t63 106t26 111q0 69 -22 137h241q33 -93 33 -176q0 -65 -23.5 -130t-57.5 -117.5t-67.5 -103t-57 -106t-23.5 -106.5q0 -82 34 -122t91 -40q79 0 161 63l72 -190q-153 -94 -301 -94q-154 0 -243 101.5t-89 270.5zM258 1024 q0 66 41 104.5t104 38.5q67 0 110.5 -37.5t43.5 -105.5q0 -66 -43.5 -103.5t-110.5 -37.5q-63 0 -104 37.5t-41 103.5z" />
<glyph unicode="&#xc0;" horiz-adv-x="1163" d="M29 0q37 126 209.5 743.5t226.5 792.5h227q17 -67 209 -729.5t236 -806.5h-277q-24 81 -110 440h-347l-104 -440h-270zM305 1876l125 215l363 -287l-66 -114zM451 641h249q-29 121 -86 371l-32 172h-11l-32 -174z" />
<glyph unicode="&#xc1;" horiz-adv-x="1163" d="M29 0q37 126 209.5 743.5t226.5 792.5h227q17 -67 209 -729.5t236 -806.5h-277q-24 81 -110 440h-347l-104 -440h-270zM373 1804l362 287l125 -215l-422 -186zM451 641h249q-29 121 -86 371l-32 172h-11l-32 -174z" />
<glyph unicode="&#xc2;" horiz-adv-x="1163" d="M29 0q37 126 209.5 743.5t226.5 792.5h227q17 -67 209 -729.5t236 -806.5h-277q-24 81 -110 440h-347l-104 -440h-270zM233 1806l244 260h213l244 -260l-72 -116l-278 174l-279 -174zM451 641h249q-29 121 -86 371l-32 172h-11l-32 -174z" />
<glyph unicode="&#xc3;" horiz-adv-x="1163" d="M29 0q37 126 209.5 743.5t226.5 792.5h227q17 -67 209 -729.5t236 -806.5h-277q-24 81 -110 440h-347l-104 -440h-270zM291 1683q1 141 48 212t112 71q36 0 123 -30.5t112 -30.5q45 0 47 84h152q-1 -141 -48 -212t-112 -71q-36 0 -123.5 30.5t-112.5 30.5q-45 0 -47 -84 h-151zM451 641h249q-29 121 -86 371l-32 172h-11l-32 -174z" />
<glyph unicode="&#xc4;" horiz-adv-x="1163" d="M29 0q37 126 209.5 743.5t226.5 792.5h227q17 -67 209 -729.5t236 -806.5h-277q-24 81 -110 440h-347l-104 -440h-270zM258 1835q0 65 35 106t94 41q56 0 90.5 -41t34.5 -106q0 -66 -34 -106.5t-91 -40.5q-60 0 -94.5 40t-34.5 107zM451 641h249q-29 121 -86 371l-32 172 h-11l-32 -174zM655 1835q0 65 35 106t94 41q56 0 90.5 -41t34.5 -106q0 -66 -34 -106.5t-91 -40.5q-60 0 -94.5 40t-34.5 107z" />
<glyph unicode="&#xc5;" horiz-adv-x="1163" d="M29 0q37 126 209.5 743.5t226.5 792.5h227q17 -67 209 -729.5t236 -806.5h-277q-24 81 -110 440h-347l-104 -440h-270zM375 1864q0 116 58.5 193t146.5 77q91 0 149.5 -75.5t58.5 -192.5q0 -115 -59.5 -191t-148.5 -76q-88 0 -146.5 75t-58.5 190zM451 641h249 q-29 121 -86 371l-32 172h-11l-32 -174zM481 1866q0 -65 29 -106.5t72 -41.5q44 0 72 42t28 106q0 67 -28.5 107t-73.5 40q-44 0 -71.5 -41.5t-27.5 -105.5z" />
<glyph unicode="&#xc6;" horiz-adv-x="1482" d="M-4 0q238 503 764 1536h661v-209h-377v-455h283l-24 -192h-259v-469h383v-211h-659v338h-342q-6 -31 -63 -179t-60 -159h-307zM553 539h215v450l6 105l-12 4l-31 -107q-17 -46 -86.5 -213.5t-91.5 -238.5z" />
<glyph unicode="&#xc7;" horiz-adv-x="1009" d="M57 752q0 201 42 356t117 251t174 144.5t218 48.5q88 0 182.5 -26.5t159.5 -83.5l-47 -213q-55 48 -125 75t-131 27q-144 0 -224.5 -143.5t-80.5 -429.5q0 -280 86 -414.5t229 -134.5q69 0 143.5 23.5t129.5 66.5l28 -213q-112 -88 -288 -102l-78 -103q125 -27 125 -170 q0 -74 -54.5 -132t-138.5 -58q-95 0 -162 53l25 92q20 -16 51.5 -28.5t59.5 -12.5q61 0 61 72q0 37 -23.5 56.5t-66.5 19.5h-49l-23 59l123 160q-77 14 -143.5 48t-126 96t-102 146t-67 204.5t-24.5 265.5z" />
<glyph unicode="&#xc8;" horiz-adv-x="804" d="M92 0v1536h651v-211h-376v-453h282l-24 -192h-258v-469h383v-211h-658zM150 1876l124 215l363 -287l-66 -114z" />
<glyph unicode="&#xc9;" horiz-adv-x="804" d="M92 0v1536h651v-211h-376v-453h282l-24 -192h-258v-469h383v-211h-658zM170 1804l362 287l125 -215l-421 -186z" />
<glyph unicode="&#xca;" horiz-adv-x="804" d="M57 1806l244 260h213l244 -260l-72 -116l-278 174l-279 -174zM92 0v1536h651v-211h-376v-453h282l-24 -192h-258v-469h383v-211h-658z" />
<glyph unicode="&#xcb;" horiz-adv-x="804" d="M80 1835q0 65 35 106t94 41q56 0 90.5 -41t34.5 -106q0 -66 -34 -106.5t-91 -40.5q-60 0 -94.5 40t-34.5 107zM92 0v1536h651v-211h-376v-453h282l-24 -192h-258v-469h383v-211h-658zM477 1835q0 65 35 106t94 41q56 0 90.5 -41t34.5 -106q0 -66 -34 -106.5t-91 -40.5 q-60 0 -94.5 40t-34.5 107z" />
<glyph unicode="&#xcc;" horiz-adv-x="456" d="M-43 1876l125 215l362 -287l-65 -114zM92 0v1536h273v-1536h-273z" />
<glyph unicode="&#xcd;" horiz-adv-x="456" d="M14 1804l363 287l125 -215l-422 -186zM92 0v1536h273v-1536h-273z" />
<glyph unicode="&#xce;" horiz-adv-x="456" d="M-121 1806l244 260h213l244 -260l-72 -116l-279 174l-278 -174zM92 0v1536h273v-1536h-273z" />
<glyph unicode="&#xcf;" horiz-adv-x="456" d="M-96 1835q0 65 35 106t94 41q56 0 90.5 -41t34.5 -106q0 -66 -34 -106.5t-91 -40.5q-60 0 -94.5 40t-34.5 107zM92 0v1536h273v-1536h-273zM301 1835q0 65 35 106t94 41q56 0 90.5 -41t34.5 -106q0 -66 -34 -106.5t-91 -40.5q-60 0 -94.5 40t-34.5 107z" />
<glyph unicode="&#xd0;" horiz-adv-x="1161" d="M12 698v195h109v643h436q547 0 547 -768q0 -362 -132.5 -565t-393.5 -203h-457v698h-109zM387 211h141q75 0 131.5 41.5t90.5 117.5t50.5 176.5t16.5 225.5q0 295 -73.5 424t-221.5 129h-135v-432h170v-195h-170v-487z" />
<glyph unicode="&#xd1;" horiz-adv-x="1191" d="M92 0v1536h223q19 -35 124 -226t197 -361.5t163 -307.5l47 -111l10 2l-6 119l-4 885h254v-1534l-170 -20q-343 612 -529 981l-55 143h-8l6 -156l4 -950h-256zM303 1683q1 141 48 212t112 71q36 0 123 -30.5t112 -30.5q45 0 47 84h152q-1 -141 -48 -212t-112 -71 q-36 0 -123 30.5t-112 30.5q-45 0 -47 -84h-152z" />
<glyph unicode="&#xd2;" horiz-adv-x="1193" d="M57 770q0 377 136.5 579.5t404.5 202.5q265 0 402 -201.5t137 -572.5q0 -403 -140 -599.5t-399 -196.5q-260 0 -400.5 197t-140.5 591zM336 772q0 -586 260 -586q131 0 196.5 139t65.5 451q0 298 -66.5 435t-195.5 137q-260 0 -260 -576zM342 1876l125 215l362 -287 l-65 -114z" />
<glyph unicode="&#xd3;" horiz-adv-x="1193" d="M57 770q0 377 136.5 579.5t404.5 202.5q265 0 402 -201.5t137 -572.5q0 -403 -140 -599.5t-399 -196.5q-260 0 -400.5 197t-140.5 591zM336 772q0 -586 260 -586q131 0 196.5 139t65.5 451q0 298 -66.5 435t-195.5 137q-260 0 -260 -576zM362 1804l363 287l125 -215 l-422 -186z" />
<glyph unicode="&#xd4;" horiz-adv-x="1193" d="M57 770q0 377 136.5 579.5t404.5 202.5q265 0 402 -201.5t137 -572.5q0 -403 -140 -599.5t-399 -196.5q-260 0 -400.5 197t-140.5 591zM248 1806l244 260h213l243 -260l-71 -116l-279 174l-279 -174zM336 772q0 -586 260 -586q131 0 196.5 139t65.5 451q0 298 -66.5 435 t-195.5 137q-260 0 -260 -576z" />
<glyph unicode="&#xd5;" horiz-adv-x="1193" d="M57 770q0 377 136.5 579.5t404.5 202.5q265 0 402 -201.5t137 -572.5q0 -403 -140 -599.5t-399 -196.5q-260 0 -400.5 197t-140.5 591zM301 1683q1 141 48 212t112 71q36 0 123 -30.5t112 -30.5q45 0 47 84h152q-1 -141 -48 -212t-112 -71q-36 0 -123 30.5t-112 30.5 q-45 0 -47 -84h-152zM336 772q0 -586 260 -586q131 0 196.5 139t65.5 451q0 298 -66.5 435t-195.5 137q-260 0 -260 -576z" />
<glyph unicode="&#xd6;" horiz-adv-x="1193" d="M57 770q0 377 136.5 579.5t404.5 202.5q265 0 402 -201.5t137 -572.5q0 -403 -140 -599.5t-399 -196.5q-260 0 -400.5 197t-140.5 591zM272 1835q0 65 35 106t94 41q56 0 90.5 -41t34.5 -106q0 -66 -34 -106.5t-91 -40.5q-60 0 -94.5 40t-34.5 107zM336 772 q0 -586 260 -586q131 0 196.5 139t65.5 451q0 298 -66.5 435t-195.5 137q-260 0 -260 -576zM670 1835q0 65 35 106t94 41q56 0 90.5 -41t34.5 -106q0 -66 -34 -106.5t-91 -40.5q-60 0 -94.5 40t-34.5 107z" />
<glyph unicode="&#xd7;" d="M145 307l215 334l-215 334l123 127l215 -336l215 336l121 -127l-217 -334l217 -334l-121 -127l-215 334l-217 -334z" />
<glyph unicode="&#xd8;" horiz-adv-x="1193" d="M57 770q0 377 136.5 579.5t404.5 202.5q175 0 289 -84l51 105h123l-90 -184q166 -196 166 -611q0 -403 -140 -599.5t-399 -196.5q-166 0 -276 75l-41 -86h-123l78 160q-179 204 -179 639zM336 772q0 -224 37 -360l403 829q-63 107 -180 107q-260 0 -260 -576zM430 279 q66 -93 166 -93q131 0 196.5 139t65.5 451q0 183 -29 322z" />
<glyph unicode="&#xd9;" horiz-adv-x="1132" d="M78 604v932h274v-938q0 -213 53.5 -304t159.5 -91q85 0 130 33.5t66 118t21 243.5v938h275v-924q0 -144 -20.5 -251t-59.5 -179.5t-100.5 -117t-137.5 -63.5t-176 -19q-119 0 -204 28.5t-150.5 97t-98 192t-32.5 304.5zM301 1876l125 215l362 -287l-65 -114z" />
<glyph unicode="&#xda;" horiz-adv-x="1132" d="M78 604v932h274v-938q0 -213 53.5 -304t159.5 -91q85 0 130 33.5t66 118t21 243.5v938h275v-924q0 -144 -20.5 -251t-59.5 -179.5t-100.5 -117t-137.5 -63.5t-176 -19q-119 0 -204 28.5t-150.5 97t-98 192t-32.5 304.5zM344 1804l363 287l124 -215l-421 -186z" />
<glyph unicode="&#xdb;" horiz-adv-x="1132" d="M78 604v932h274v-938q0 -213 53.5 -304t159.5 -91q85 0 130 33.5t66 118t21 243.5v938h275v-924q0 -144 -20.5 -251t-59.5 -179.5t-100.5 -117t-137.5 -63.5t-176 -19q-119 0 -204 28.5t-150.5 97t-98 192t-32.5 304.5zM219 1806l244 260h213l244 -260l-72 -116l-279 174 l-278 -174z" />
<glyph unicode="&#xdc;" horiz-adv-x="1132" d="M78 604v932h274v-938q0 -213 53.5 -304t159.5 -91q85 0 130 33.5t66 118t21 243.5v938h275v-924q0 -144 -20.5 -251t-59.5 -179.5t-100.5 -117t-137.5 -63.5t-176 -19q-119 0 -204 28.5t-150.5 97t-98 192t-32.5 304.5zM242 1835q0 65 35 106t94 41q56 0 90.5 -41 t34.5 -106q0 -66 -34 -106.5t-91 -40.5q-60 0 -94.5 40t-34.5 107zM639 1835q0 65 35 106t94 41q56 0 90.5 -41t34.5 -106q0 -66 -34 -106.5t-91 -40.5q-60 0 -94.5 40t-34.5 107z" />
<glyph unicode="&#xdd;" horiz-adv-x="1026" d="M31 1335v197q54 8 106 8q73 0 125.5 -37.5t85.5 -132.5q0 -2 20 -54.5t51 -135t50 -133.5l35 -103h8l33 103q12 33 44 123t63.5 181t60.5 185h293q-51 -133 -123 -302.5t-147 -339t-97 -222.5v-672h-272v688q-28 71 -232 551q-41 96 -104 96zM311 1804l363 287l125 -215 l-422 -186z" />
<glyph unicode="&#xde;" horiz-adv-x="960" d="M92 0v1536h275v-276h147q195 0 299.5 -124t104.5 -335q0 -235 -118 -375.5t-337 -140.5q-34 0 -96 8v-293h-275zM367 508q27 -8 71 -8q105 0 159 67t54 226q0 131 -54.5 193.5t-143.5 62.5h-86v-541z" />
<glyph unicode="&#xdf;" horiz-adv-x="1112" d="M27 926v178h120v22q0 229 111 345t307 116q105 0 196.5 -36t151.5 -111.5t60 -175.5q0 -65 -22.5 -123.5t-54.5 -100t-63.5 -79t-54 -76.5t-22.5 -76q0 -31 17.5 -59t45 -51.5t60.5 -48t66.5 -55t61 -66.5t45 -89t17.5 -116q0 -165 -96 -253.5t-240 -88.5q-70 0 -140 22 t-116 51l35 185q36 -23 96.5 -39.5t102.5 -16.5q56 0 84 36.5t28 92.5q0 36 -18.5 66t-47.5 52.5t-64 44.5t-70.5 49.5t-64.5 59.5t-47.5 81.5t-18.5 109.5q0 61 20 115.5t48.5 95.5t57 80t48.5 86t20 96q0 66 -32 104t-97 38q-82 0 -116.5 -73t-34.5 -212v-1106h-259v926 h-120z" />
<glyph unicode="&#xe0;" horiz-adv-x="921" d="M49 303q0 110 43.5 168t136.5 92q54 21 171 57t145 46v61q0 209 -129 209q-118 0 -281 -98l-47 166q78 56 176.5 86t177.5 30q38 0 70 -3.5t70 -14.5t68.5 -28.5t60 -48.5t49 -72.5t31.5 -101.5t12 -134v-477q0 -70 41 -70q12 0 28 2t17 2l10 -147q-95 -45 -201 -45 q-66 0 -96.5 33.5t-42.5 111.5l-10 4q-123 -149 -256 -149q-98 0 -171 89.5t-73 231.5zM223 1677l197 107l188 -457l-102 -59zM315 328q0 -72 29 -122t70 -50q30 0 66 34.5t65 92.5v249q-104 -42 -162 -75q-68 -35 -68 -129z" />
<glyph unicode="&#xe1;" horiz-adv-x="921" d="M49 303q0 110 43.5 168t136.5 92q54 21 171 57t145 46v61q0 209 -129 209q-118 0 -281 -98l-47 166q78 56 176.5 86t177.5 30q38 0 70 -3.5t70 -14.5t68.5 -28.5t60 -48.5t49 -72.5t31.5 -101.5t12 -134v-477q0 -70 41 -70q12 0 28 2t17 2l10 -147q-95 -45 -201 -45 q-66 0 -96.5 33.5t-42.5 111.5l-10 4q-123 -149 -256 -149q-98 0 -171 89.5t-73 231.5zM301 1327l188 457l197 -107l-283 -409zM315 328q0 -72 29 -122t70 -50q30 0 66 34.5t65 92.5v249q-104 -42 -162 -75q-68 -35 -68 -129z" />
<glyph unicode="&#xe2;" horiz-adv-x="921" d="M49 303q0 110 43.5 168t136.5 92q54 21 171 57t145 46v61q0 209 -129 209q-118 0 -281 -98l-47 166q78 56 176.5 86t177.5 30q38 0 70 -3.5t70 -14.5t68.5 -28.5t60 -48.5t49 -72.5t31.5 -101.5t12 -134v-477q0 -70 41 -70q12 0 28 2t17 2l10 -147q-95 -45 -201 -45 q-66 0 -96.5 33.5t-42.5 111.5l-10 4q-123 -149 -256 -149q-98 0 -171 89.5t-73 231.5zM145 1362l197 416h217l197 -416l-127 -70l-180 293l-177 -293zM315 328q0 -72 29 -122t70 -50q30 0 66 34.5t65 92.5v249q-104 -42 -162 -75q-68 -35 -68 -129z" />
<glyph unicode="&#xe3;" horiz-adv-x="921" d="M49 303q0 110 43.5 168t136.5 92q54 21 171 57t145 46v61q0 209 -129 209q-118 0 -281 -98l-47 166q78 56 176.5 86t177.5 30q38 0 70 -3.5t70 -14.5t68.5 -28.5t60 -48.5t49 -72.5t31.5 -101.5t12 -134v-477q0 -70 41 -70q12 0 28 2t17 2l10 -147q-95 -45 -201 -45 q-66 0 -96.5 33.5t-42.5 111.5l-10 4q-123 -149 -256 -149q-98 0 -171 89.5t-73 231.5zM158 1313q1 141 47.5 211.5t111.5 70.5q36 0 123.5 -30.5t112.5 -30.5q45 0 47 84h152q-1 -141 -48 -212t-112 -71q-36 0 -123.5 31t-112.5 31q-45 0 -47 -84h-151zM315 328 q0 -72 29 -122t70 -50q30 0 66 34.5t65 92.5v249q-104 -42 -162 -75q-68 -35 -68 -129z" />
<glyph unicode="&#xe4;" horiz-adv-x="921" d="M49 303q0 110 43.5 168t136.5 92q54 21 171 57t145 46v61q0 209 -129 209q-118 0 -281 -98l-47 166q78 56 176.5 86t177.5 30q38 0 70 -3.5t70 -14.5t68.5 -28.5t60 -48.5t49 -72.5t31.5 -101.5t12 -134v-477q0 -70 41 -70q12 0 28 2t17 2l10 -147q-95 -45 -201 -45 q-66 0 -96.5 33.5t-42.5 111.5l-10 4q-123 -149 -256 -149q-98 0 -171 89.5t-73 231.5zM125 1475q0 65 35 106t94 41q56 0 90.5 -41t34.5 -106q0 -66 -34 -107t-91 -41q-59 0 -94 40.5t-35 107.5zM315 328q0 -72 29 -122t70 -50q30 0 66 34.5t65 92.5v249q-104 -42 -162 -75 q-68 -35 -68 -129zM522 1475q0 65 35 106t94 41q56 0 90.5 -41t34.5 -106q0 -66 -34 -107t-91 -41q-59 0 -94 40.5t-35 107.5z" />
<glyph unicode="&#xe5;" horiz-adv-x="921" d="M49 303q0 110 43.5 168t136.5 92q54 21 171 57t145 46v61q0 209 -129 209q-118 0 -281 -98l-47 166q78 56 176.5 86t177.5 30q38 0 70 -3.5t70 -14.5t68.5 -28.5t60 -48.5t49 -72.5t31.5 -101.5t12 -134v-477q0 -70 41 -70q12 0 28 2t17 2l10 -147q-95 -45 -201 -45 q-66 0 -96.5 33.5t-42.5 111.5l-10 4q-123 -149 -256 -149q-98 0 -171 89.5t-73 231.5zM246 1544q0 116 58.5 193.5t146.5 77.5q91 0 149.5 -76t58.5 -193q0 -115 -59.5 -190.5t-148.5 -75.5q-88 0 -146.5 74.5t-58.5 189.5zM315 328q0 -72 29 -122t70 -50q30 0 66 34.5 t65 92.5v249q-104 -42 -162 -75q-68 -35 -68 -129zM352 1546q0 -65 29 -106t72 -41q44 0 72 42t28 105q0 67 -28.5 107.5t-73.5 40.5q-44 0 -71.5 -42t-27.5 -106z" />
<glyph unicode="&#xe6;" horiz-adv-x="1349" d="M49 303q0 110 43.5 168t136.5 92q89 34 316 103v61q0 209 -129 209q-118 0 -281 -98l-47 166q78 56 176.5 86t177.5 30q168 0 246 -123q101 123 258 123q170 0 263.5 -124t93.5 -353q0 -25 -5 -82h-501v-26q0 -361 225 -361q111 0 235 59l25 -174q-64 -33 -150.5 -55 t-168.5 -22q-218 0 -314 200h-8q-67 -105 -146.5 -152.5t-177.5 -47.5q-114 0 -191 90t-77 231zM315 328q0 -72 27 -121t68 -49q29 0 67 36.5t68 90.5v247q-104 -42 -162 -75q-68 -35 -68 -129zM801 692h250q0 264 -109 264q-58 0 -95 -66t-46 -198z" />
<glyph unicode="&#xe7;" horiz-adv-x="770" d="M57 539q0 101 10 183t36 158t68.5 127.5t110.5 82t158 30.5q71 0 147 -18.5t126 -50.5l-37 -199q-37 25 -91.5 43t-95.5 18q-85 0 -125 -89.5t-40 -276.5q0 -76 9 -138.5t28.5 -114t54.5 -80t84 -28.5q101 0 196 52l33 -185q-76 -54 -209 -67l-80 -105q125 -27 125 -170 q0 -74 -54 -132t-138 -58q-95 0 -162 53l25 92q20 -16 51 -28.5t59 -12.5q62 0 62 72q0 36 -24 56t-67 20h-49l-22 59l121 158q-146 30 -228 169t-82 380z" />
<glyph unicode="&#xe8;" horiz-adv-x="876" d="M57 539q0 129 23.5 231t62 166.5t92.5 107t111 59.5t121 17q170 0 266 -117.5t96 -359.5q0 -28 -4 -82h-501v-26q0 -177 50 -268t175 -91q115 0 235 60l25 -177q-160 -75 -320 -75q-67 0 -127.5 17t-117 58.5t-97.5 103.5t-65.5 158.5t-24.5 217.5zM215 1677l197 107 l188 -457l-102 -59zM328 692h250q0 264 -109 264q-58 0 -95 -66t-46 -198z" />
<glyph unicode="&#xe9;" horiz-adv-x="876" d="M57 539q0 129 23.5 231t62 166.5t92.5 107t111 59.5t121 17q170 0 266 -117.5t96 -359.5q0 -28 -4 -82h-501v-26q0 -177 50 -268t175 -91q115 0 235 60l25 -177q-160 -75 -320 -75q-67 0 -127.5 17t-117 58.5t-97.5 103.5t-65.5 158.5t-24.5 217.5zM293 1327l188 457 l197 -107l-283 -409zM328 692h250q0 264 -109 264q-58 0 -95 -66t-46 -198z" />
<glyph unicode="&#xea;" horiz-adv-x="876" d="M57 539q0 129 23.5 231t62 166.5t92.5 107t111 59.5t121 17q170 0 266 -117.5t96 -359.5q0 -28 -4 -82h-501v-26q0 -177 50 -268t175 -91q115 0 235 60l25 -177q-160 -75 -320 -75q-67 0 -127.5 17t-117 58.5t-97.5 103.5t-65.5 158.5t-24.5 217.5zM164 1362l196 416h218 l196 -416l-127 -70l-180 293l-176 -293zM328 692h250q0 264 -109 264q-58 0 -95 -66t-46 -198z" />
<glyph unicode="&#xeb;" horiz-adv-x="876" d="M57 539q0 129 23.5 231t62 166.5t92.5 107t111 59.5t121 17q170 0 266 -117.5t96 -359.5q0 -28 -4 -82h-501v-26q0 -177 50 -268t175 -91q115 0 235 60l25 -177q-160 -75 -320 -75q-67 0 -127.5 17t-117 58.5t-97.5 103.5t-65.5 158.5t-24.5 217.5zM145 1475q0 65 35 106 t94 41q56 0 90.5 -41t34.5 -106q0 -66 -34 -107t-91 -41q-59 0 -94 40.5t-35 107.5zM328 692h250q0 264 -109 264q-58 0 -95 -66t-46 -198zM543 1475q0 65 35 106t94 41q56 0 90.5 -41t34.5 -106q0 -66 -34 -107t-91 -41q-59 0 -94 40.5t-35 107.5z" />
<glyph unicode="&#xec;" horiz-adv-x="430" d="M-37 1677l197 107l188 -457l-102 -59zM86 0v1104h258v-1104h-258z" />
<glyph unicode="&#xed;" horiz-adv-x="430" d="M86 0v1104h258v-1104h-258zM100 1327l189 457l196 -107l-282 -409z" />
<glyph unicode="&#xee;" horiz-adv-x="430" d="M-90 1362l196 416h218l196 -416l-127 -70l-180 293l-176 -293zM86 0v1104h258v-1104h-258z" />
<glyph unicode="&#xef;" horiz-adv-x="430" d="M-111 1475q0 65 35 106t94 41q56 0 90.5 -41t34.5 -106q0 -66 -34 -107t-91 -41q-59 0 -94 40.5t-35 107.5zM86 0v1104h258v-1104h-258zM287 1475q0 65 35 106t94 41q56 0 90.5 -41t34.5 -106q0 -66 -34 -107t-91 -41q-59 0 -94 40.5t-35 107.5z" />
<glyph unicode="&#xf0;" horiz-adv-x="882" d="M49 451q0 223 94.5 353t264.5 130q67 0 131 -37l12 6q-14 123 -80 240l-233 -115v211l114 57q-77 70 -182 107l68 184q181 -57 317 -190l211 106v-215l-92 -45q145 -247 145 -602q0 -131 -23 -245t-70 -209t-128.5 -150t-189.5 -55q-53 0 -103 16.5t-97 53.5t-82 90 t-56 133t-21 176zM291 459q0 -126 36.5 -206.5t100.5 -80.5q39 0 68.5 35t45.5 94.5t23.5 129t7.5 149.5q0 84 -6 137q-43 45 -110 45q-74 0 -120 -80t-46 -223z" />
<glyph unicode="&#xf1;" horiz-adv-x="935" d="M86 0v1104h223l23 -141l14 -2q101 159 268 159q250 0 250 -409v-711h-258v678q0 95 -13.5 147t-34.5 68t-56 16q-46 0 -89 -38t-69 -105v-766h-258zM172 1313q1 141 48 211.5t112 70.5q36 0 123 -30.5t112 -30.5q45 0 47 84h152q-1 -141 -48 -212t-112 -71q-36 0 -123 31 t-112 31q-45 0 -47 -84h-152z" />
<glyph unicode="&#xf2;" horiz-adv-x="944" d="M57 553q0 279 106.5 423t311.5 144q412 0 412 -569q0 -295 -109 -431t-305 -136q-194 0 -305 138.5t-111 430.5zM248 1677l196 107l189 -457l-103 -59zM324 553q0 -381 151 -381q73 0 109.5 89.5t36.5 289.5q0 207 -37 292t-109 85q-35 0 -60.5 -16.5t-47 -56 t-32.5 -115.5t-11 -187z" />
<glyph unicode="&#xf3;" horiz-adv-x="944" d="M57 553q0 279 106.5 423t311.5 144q412 0 412 -569q0 -295 -109 -431t-305 -136q-194 0 -305 138.5t-111 430.5zM315 1327l189 457l196 -107l-282 -409zM324 553q0 -381 151 -381q73 0 109.5 89.5t36.5 289.5q0 207 -37 292t-109 85q-35 0 -60.5 -16.5t-47 -56 t-32.5 -115.5t-11 -187z" />
<glyph unicode="&#xf4;" horiz-adv-x="944" d="M57 553q0 279 106.5 423t311.5 144q412 0 412 -569q0 -295 -109 -431t-305 -136q-194 0 -305 138.5t-111 430.5zM172 1362l197 416h217l196 -416l-127 -70l-180 293l-176 -293zM324 553q0 -381 151 -381q73 0 109.5 89.5t36.5 289.5q0 207 -37 292t-109 85 q-35 0 -60.5 -16.5t-47 -56t-32.5 -115.5t-11 -187z" />
<glyph unicode="&#xf5;" horiz-adv-x="944" d="M57 553q0 279 106.5 423t311.5 144q412 0 412 -569q0 -295 -109 -431t-305 -136q-194 0 -305 138.5t-111 430.5zM176 1313q1 141 48 211.5t112 70.5q36 0 123 -30.5t112 -30.5q45 0 47 84h152q-1 -141 -48 -212t-112 -71q-36 0 -123 31t-112 31q-45 0 -47 -84h-152z M324 553q0 -381 151 -381q73 0 109.5 89.5t36.5 289.5q0 207 -37 292t-109 85q-35 0 -60.5 -16.5t-47 -56t-32.5 -115.5t-11 -187z" />
<glyph unicode="&#xf6;" horiz-adv-x="944" d="M57 553q0 279 106.5 423t311.5 144q412 0 412 -569q0 -295 -109 -431t-305 -136q-194 0 -305 138.5t-111 430.5zM147 1475q0 65 35 106t94 41q56 0 90.5 -41t34.5 -106q0 -66 -34 -107t-91 -41q-59 0 -94 40.5t-35 107.5zM324 553q0 -381 151 -381q73 0 109.5 89.5 t36.5 289.5q0 207 -37 292t-109 85q-35 0 -60.5 -16.5t-47 -56t-32.5 -115.5t-11 -187zM545 1475q0 65 35 106t94 41q56 0 90.5 -41t34.5 -106q0 -66 -34 -107t-91 -41q-59 0 -94 40.5t-35 107.5z" />
<glyph unicode="&#xf7;" d="M109 549v180h747v-180h-747zM377 279q0 53 28.5 84.5t77.5 31.5q48 0 77.5 -32t29.5 -84q0 -53 -29.5 -84t-77.5 -31q-50 0 -78 30.5t-28 84.5zM377 997q0 54 28.5 85.5t77.5 31.5q47 0 77 -31.5t30 -85.5q0 -52 -30 -83t-77 -31q-49 0 -77.5 31t-28.5 83z" />
<glyph unicode="&#xf8;" horiz-adv-x="944" d="M57 553q0 279 106.5 423t311.5 144q115 0 197 -43l35 72h122l-69 -143q127 -142 127 -455q0 -295 -109 -431t-305 -136q-104 0 -188 41l-35 -74h-123l68 139q-138 141 -138 463zM324 553q0 -115 10 -174l237 489q-35 60 -96 60q-35 0 -60.5 -16.5t-47 -56t-32.5 -115.5 t-11 -187zM383 225q36 -53 92 -53q73 0 109.5 89.5t36.5 289.5q0 76 -7 151z" />
<glyph unicode="&#xf9;" horiz-adv-x="937" d="M72 389v715h258v-694q0 -134 27 -185t85 -51q45 0 87.5 35t64.5 98v797h258v-1104h-215l-29 133l-14 2q-52 -76 -121.5 -114.5t-142.5 -38.5q-119 0 -188.5 102t-69.5 305zM217 1677l197 107l188 -457l-102 -59z" />
<glyph unicode="&#xfa;" horiz-adv-x="937" d="M72 389v715h258v-694q0 -134 27 -185t85 -51q45 0 87.5 35t64.5 98v797h258v-1104h-215l-29 133l-14 2q-52 -76 -121.5 -114.5t-142.5 -38.5q-119 0 -188.5 102t-69.5 305zM317 1327l189 457l196 -107l-282 -409z" />
<glyph unicode="&#xfb;" horiz-adv-x="937" d="M72 389v715h258v-694q0 -134 27 -185t85 -51q45 0 87.5 35t64.5 98v797h258v-1104h-215l-29 133l-14 2q-52 -76 -121.5 -114.5t-142.5 -38.5q-119 0 -188.5 102t-69.5 305zM158 1362l196 416h217l197 -416l-127 -70l-180 293l-176 -293z" />
<glyph unicode="&#xfc;" horiz-adv-x="937" d="M72 389v715h258v-694q0 -134 27 -185t85 -51q45 0 87.5 35t64.5 98v797h258v-1104h-215l-29 133l-14 2q-52 -76 -121.5 -114.5t-142.5 -38.5q-119 0 -188.5 102t-69.5 305zM137 1475q0 65 35 106t94 41q56 0 90.5 -41t34.5 -106q0 -66 -34 -107t-91 -41q-59 0 -94 40.5 t-35 107.5zM535 1475q0 65 35 106t94 41q56 0 90 -41t34 -106q0 -66 -33.5 -107t-90.5 -41q-59 0 -94 40.5t-35 107.5z" />
<glyph unicode="&#xfd;" horiz-adv-x="956" d="M37 913v197q59 6 102 6q84 0 123 -30.5t68 -137.5q13 -49 55.5 -236.5t69.5 -326.5l12 -117h12l17 103l166 733h270q-149 -555 -453 -1575h-264l166 471h-62q-157 665 -210 840q-12 41 -27 56t-45 17zM326 1327l188 457l197 -107l-283 -409z" />
<glyph unicode="&#xfe;" horiz-adv-x="942" d="M86 -471v2048h252v-367l-4 -237l10 -2q49 73 99 111t126 38q97 0 169.5 -74t109.5 -196.5t37 -274.5q0 -292 -103 -442.5t-274 -150.5q-84 0 -164 41v-494h-258zM344 240q53 -47 111 -47q163 0 163 370q0 157 -36.5 252.5t-96.5 95.5q-40 0 -76.5 -37.5t-64.5 -99.5v-534 z" />
<glyph unicode="&#xff;" horiz-adv-x="956" d="M37 913v197q59 6 102 6q84 0 123 -30.5t68 -137.5q13 -49 55.5 -236.5t69.5 -326.5l12 -117h12l17 103l166 733h270q-149 -555 -453 -1575h-264l166 471h-62q-157 665 -210 840q-12 41 -27 56t-45 17zM170 1475q0 65 35 106t94 41q56 0 90.5 -41t34.5 -106 q0 -66 -34 -107t-91 -41q-59 0 -94 40.5t-35 107.5zM567 1475q0 65 35 106t94 41q56 0 90.5 -41t34.5 -106q0 -66 -34 -107t-91 -41q-59 0 -94 40.5t-35 107.5z" />
<glyph unicode="&#x152;" horiz-adv-x="1417" d="M57 756q0 234 61 408t185.5 273t300.5 99h750v-211h-377v-453h285l-25 -192h-260v-469h385v-211h-766q-253 0 -396 202t-143 554zM340 752q0 -250 76 -396.5t207 -146.5h84v1120h-82q-129 0 -207 -158.5t-78 -418.5z" />
<glyph unicode="&#x153;" horiz-adv-x="1433" d="M57 553q0 279 106.5 423t311.5 144q101 0 167.5 -45.5t102.5 -113.5q92 159 279 159q170 0 266 -117.5t96 -359.5q0 -28 -4 -82h-501v-26q0 -177 50 -269t175 -92q117 0 235 59l25 -176q-160 -75 -319 -75q-231 0 -299 190q-88 -190 -275 -190q-194 0 -305 139.5 t-111 431.5zM324 553q0 -383 151 -383q73 0 109.5 90.5t36.5 290.5q0 207 -37 292t-109 85q-35 0 -60.5 -16.5t-47 -56t-32.5 -115.5t-11 -187zM885 692h250q0 264 -109 264q-58 0 -95 -66t-46 -198z" />
<glyph unicode="&#x178;" horiz-adv-x="1026" d="M31 1335v197q54 8 106 8q73 0 125.5 -37.5t85.5 -132.5q0 -2 20 -54.5t51 -135t50 -133.5l35 -103h8l33 103q12 33 44 123t63.5 181t60.5 185h293q-51 -133 -123 -302.5t-147 -339t-97 -222.5v-672h-272v688q-28 71 -232 551q-41 96 -104 96zM176 1835q0 65 35 106t94 41 q56 0 90.5 -41t34.5 -106q0 -66 -34 -106.5t-91 -40.5q-60 0 -94.5 40t-34.5 107zM573 1835q0 65 35 106t94 41q56 0 90.5 -41t34.5 -106q0 -66 -34 -106.5t-91 -40.5q-60 0 -94.5 40t-34.5 107z" />
<glyph unicode="&#x2c6;" horiz-adv-x="741" d="M66 1362l196 416h217l197 -416l-127 -70l-180 293l-176 -293z" />
<glyph unicode="&#x2dc;" horiz-adv-x="741" d="M74 1313q1 141 47.5 211.5t111.5 70.5q36 0 123.5 -30.5t112.5 -30.5q45 0 47 84h152q-1 -141 -48 -212t-112 -71q-36 0 -123.5 31t-112.5 31q-45 0 -47 -84h-151z" />
<glyph unicode="&#x2000;" horiz-adv-x="1067" />
<glyph unicode="&#x2001;" horiz-adv-x="2134" />
<glyph unicode="&#x2002;" horiz-adv-x="1067" />
<glyph unicode="&#x2003;" horiz-adv-x="2134" />
<glyph unicode="&#x2004;" horiz-adv-x="711" />
<glyph unicode="&#x2005;" horiz-adv-x="533" />
<glyph unicode="&#x2006;" horiz-adv-x="355" />
<glyph unicode="&#x2007;" horiz-adv-x="355" />
<glyph unicode="&#x2008;" horiz-adv-x="266" />
<glyph unicode="&#x2009;" horiz-adv-x="426" />
<glyph unicode="&#x200a;" horiz-adv-x="118" />
<glyph unicode="&#x2010;" horiz-adv-x="610" d="M35 465v172l538 45v-174z" />
<glyph unicode="&#x2011;" horiz-adv-x="610" d="M35 465v172l538 45v-174z" />
<glyph unicode="&#x2012;" horiz-adv-x="610" d="M35 465v172l538 45v-174z" />
<glyph unicode="&#x2013;" horiz-adv-x="954" d="M35 489v175h883v-175h-883z" />
<glyph unicode="&#x2014;" horiz-adv-x="1351" d="M35 489v175h1280v-175h-1280z" />
<glyph unicode="&#x2018;" horiz-adv-x="380" d="M57 1270q0 78 31 156.5t86 142.5l143 -33q-59 -106 -59 -221q0 -104 57 -199l-200 -43q-58 85 -58 197z" />
<glyph unicode="&#x2019;" horiz-adv-x="380" d="M66 1090q59 106 59 221q0 103 -57 198l200 43q58 -85 58 -196q0 -162 -117 -299z" />
<glyph unicode="&#x201a;" horiz-adv-x="380" d="M57 -199q60 108 60 222q0 102 -58 198l201 43q57 -83 57 -196q0 -79 -30.5 -157t-85.5 -142z" />
<glyph unicode="&#x201c;" horiz-adv-x="700" d="M57 1270q0 78 31 156.5t86 142.5l143 -33q-59 -106 -59 -221q0 -104 57 -199l-200 -43q-58 85 -58 197zM377 1266q0 152 119 290l143 -32q-27 -48 -44 -107t-17 -106q0 -101 61 -197l-203 -41q-59 76 -59 193z" />
<glyph unicode="&#x201d;" horiz-adv-x="700" d="M63 1102q27 48 44.5 107.5t17.5 105.5q0 98 -62 196l203 41q60 -78 60 -192q0 -153 -119 -291zM385 1090q59 106 59 221q0 103 -57 198l201 43q57 -83 57 -196q0 -162 -117 -299z" />
<glyph unicode="&#x201e;" horiz-adv-x="700" d="M57 -186q27 48 44.5 107.5t17.5 105.5q0 98 -62 196l203 41q59 -76 59 -192q0 -154 -118 -291zM379 -199q59 106 59 222q0 103 -57 198l201 43q57 -83 57 -196q0 -162 -117 -299z" />
<glyph unicode="&#x2022;" horiz-adv-x="716" d="M129 682q0 122 63 197t166 75q105 0 168.5 -74t63.5 -198q0 -122 -64.5 -197t-167.5 -75t-166 75t-63 197z" />
<glyph unicode="&#x2026;" horiz-adv-x="1204" d="M72 125q0 66 37 105.5t100 39.5q62 0 101.5 -40t39.5 -105q0 -63 -39.5 -103t-101.5 -40t-99.5 39.5t-37.5 103.5zM465 125q0 66 37 105.5t100 39.5q62 0 101.5 -40t39.5 -105q0 -63 -39.5 -103t-101.5 -40t-99.5 39.5t-37.5 103.5zM858 125q0 66 37 105.5t100 39.5 q62 0 102 -40t40 -105q0 -63 -40 -103t-102 -40t-99.5 39.5t-37.5 103.5z" />
<glyph unicode="&#x202f;" horiz-adv-x="426" />
<glyph unicode="&#x2039;" horiz-adv-x="583" d="M72 518v109l393 444v-278l-191 -222l191 -219v-280z" />
<glyph unicode="&#x203a;" horiz-adv-x="583" d="M119 72v278l192 221l-192 220v280l393 -446v-109z" />
<glyph unicode="&#x205f;" horiz-adv-x="533" />
<glyph unicode="&#x20ac;" d="M84 514v152h92q0 3 -1 27.5t-1 41.5q0 9 1 37t1 31h-92v151h109q16 117 47 209.5t71.5 153t91 100.5t103.5 57t112 17q83 0 147.5 -17t121.5 -65l-41 -195q-85 66 -180 66q-79 0 -130 -86t-63 -240h277v-151h-287q-2 -16 -2 -64q0 -53 2 -73h287v-152h-279 q13 -153 57 -234t129 -81q124 0 215 65l29 -198q-122 -84 -274 -84q-368 0 -434 532h-109z" />
<glyph unicode="&#x2122;" horiz-adv-x="1183" d="M72 1288v127h420v-127h-144v-504h-131v504h-145zM553 784l12 631h135q81 -219 117 -346l6 -41h8l9 41l116 346h136l10 -631h-119l-6 332l2 58h-8l-13 -60q-92 -280 -96 -291l-63 -4q-17 47 -54 158.5t-51 152.5l-12 48h-6v-394h-123z" />
<glyph unicode="&#x25fc;" horiz-adv-x="1105" d="M0 0v1106h1106v-1106h-1106z" />
<glyph unicode="&#xfb01;" horiz-adv-x="970" d="M27 926v178h120v78q0 405 361 405q136 0 266 -45l-41 -182q-34 13 -87 24t-93 11q-70 0 -108.5 -45t-38.5 -160v-86h481v-1104h-258v926h-223v-926h-259v926h-120z" />
<glyph unicode="&#xfb02;" horiz-adv-x="1032" d="M27 926v178h120v78q0 117 29.5 198.5t84.5 125.5t119.5 62.5t147.5 18.5q101 0 221 -20.5t197 -46.5v-1520h-258v1366q-74 27 -141 27q-64 0 -102.5 -44t-38.5 -157v-88h186l-21 -178h-165v-926h-259v926h-120z" />
</font>
</defs>
</svg>
