<?xml version="1.0" standalone="no"?>
<!DOCTYPE svg PUBLIC "-//W3C//DTD SVG 1.1//EN" "http://www.w3.org/Graphics/SVG/1.1/DTD/svg11.dtd" >
<svg xmlns="http://www.w3.org/2000/svg">
<metadata>
This is a custom SVG webfont generated by Font Squirrel.
Copyright   :  2000 Adobe Systems Incorporated All Rights Reserved
Designer    : Carol Twombly
Foundry URL : httpwwwadobecomtype
</metadata>
<defs>
<font id="TrajanProRegular" horiz-adv-x="1169" >
<font-face units-per-em="2048" ascent="1536" descent="-512" />
<missing-glyph horiz-adv-x="665" />
<glyph unicode=" "  horiz-adv-x="665" />
<glyph unicode="&#x09;" horiz-adv-x="665" />
<glyph unicode="&#xa0;" horiz-adv-x="665" />
<glyph unicode="!" horiz-adv-x="655" d="M221 1393q0 12 10 28q53 90 152 140q20 10 31 10q12 0 12 -21q0 -4 -5 -39.5l-13.5 -100t-12.5 -130.5q0 -6 -11 -227l-23 -436q-11 -214 -13 -236q-4 -66 -24 -66q-25 0 -31 107l-33 545q0 2 -3 63.5t-7 118.5t-9 119.5t-12 85.5q-8 33 -8 39zM225 70q0 39 27 71.5 t78 32.5q45 0 74.5 -27.5t29.5 -70.5q0 -47 -29.5 -79t-76.5 -32q-49 0 -76 32t-27 73z" />
<glyph unicode="&#x22;" horiz-adv-x="665" d="M119 1517.5q0 10.5 5 16.5t19.5 9t25.5 3h36h36q11 0 25.5 -3t19.5 -9t5 -16.5t-11.5 -53.5t-27.5 -126t-25 -181q-6 -92 -22.5 -92t-22.5 92q-8 98 -24.5 181t-27.5 126t-11 53.5zM375 1517.5q0 10.5 5 16.5t19.5 9t25.5 3h36h36q11 0 25.5 -3t19.5 -9t5 -16.5 t-11.5 -53.5t-27.5 -126t-25 -181q-6 -92 -22.5 -92t-22.5 92q-8 98 -24.5 181t-27.5 126t-11 53.5z" />
<glyph unicode="#" d="M66 492v114h268l51 336h-254v115h270l68 487h74l-68 -487h328l65 487h72l-66 -487h230v-115h-246l-49 -336h233v-114h-251l-74 -492h-72l76 492h-334l-78 -492h-71l77 492h-249zM408 606h329l49 336h-327z" />
<glyph unicode="$" d="M176 123q0 152 23 242q6 39 22 38q12 0 10 -45q-4 -125 54 -190q76 -90 223 -90l59 655q-188 131 -267 227.5t-79 225.5q0 119 70.5 206t165 124.5t188.5 37.5l14 164q0 14 13 19l47 14q16 4 16 -10l-18 -187q156 0 229 -28q16 -8 17 -31q0 -170 -9 -240q-2 -20 -16 -20 q-16 0 -16 31q0 106 -60 161q-63 59 -153 60l-60 -610q92 -59 141.5 -97.5t107.5 -96.5t84 -126t26 -149q0 -109 -47.5 -192t-118 -128t-140 -66.5t-129.5 -21.5l-14 -166q-2 -12 -20 -16l-39 -13q-8 -2 -12.5 3.5t-2.5 17.5l17 174q-156 0 -269 49q-39 16 -48 28.5t-9 45.5 zM358 1239q0 -88 54.5 -158.5t171.5 -152.5l53 559q-33 0 -75 -10.5t-90 -35t-81 -77.5t-33 -125zM582 78q129 6 203.5 83t74.5 201q0 178 -225 324z" />
<glyph unicode="%" horiz-adv-x="1781" d="M102 1143q0 158 95.5 275.5t269.5 117.5q154 0 335 12.5t305 23.5t138.5 11t14.5 -8q0 -2 -23 -59l-602 -1500q-10 -23 -21 -24l-94 -17q-16 -2 -21 5.5t-1 17.5l647 1505q-53 -2 -169 -11t-208 -15.5t-106 -6.5v-4q57 -41 95 -119.5t38 -172.5q0 -156 -91.5 -274 t-261.5 -118q-164 0 -252 112t-88 249zM229 1171q0 -131 58.5 -231t163.5 -100q111 0 164 85t53 220q0 131 -59.5 232.5t-162.5 101.5q-111 0 -164 -86.5t-53 -221.5zM985 360q0 158 90 275t264 117q162 0 251 -112t89 -249q0 -156 -91 -273.5t-263 -117.5 q-164 0 -252 111.5t-88 248.5zM1112 389q0 -131 58.5 -231.5t162.5 -100.5q111 0 165 86t54 219q0 131 -60 231.5t-163 100.5q-111 0 -164 -85t-53 -220z" />
<glyph unicode="&#x26;" horiz-adv-x="1587" d="M102 418q0 309 314 493q-100 141 -101 283q0 135 124 256t317 121q156 0 248 -51q27 -16 26 -52q0 -164 -14 -235q-6 -35 -21 -35q-12 0 -12 39q0 109 -63 174q-86 90 -205 90q-104 0 -182 -67.5t-78 -200.5q0 -111 71.5 -220.5t251.5 -303.5q49 -53 191.5 -187.5 t195.5 -179.5q45 61 75 155.5t30 184.5q0 61 -39 100q-33 33 -101 33q-25 0 -24.5 14.5t33.5 14.5q113 0 245 -15q37 -4 37 -41q0 -115 -62.5 -251t-139.5 -232q150 -127 282 -203q135 -80 244 -79q29 0 29 -14.5t-35 -14.5h-201q-117 0 -189.5 31.5t-236.5 160.5 q-221 -221 -512 -221q-127 0 -227.5 45t-156.5 116t-85 145.5t-29 146.5zM262 514q0 -190 118 -315t292 -125q240 0 387 151q-80 66 -202 181.5t-169 164.5q-174 186 -242 287q-184 -121 -184 -344z" />
<glyph unicode="'" horiz-adv-x="409" d="M119 1517.5q0 10.5 5 16.5t19.5 9t25.5 3h36h36q11 0 25.5 -3t19.5 -9t5 -16.5t-11.5 -53.5t-27.5 -126t-25 -181q-6 -92 -22.5 -92t-22.5 92q-8 98 -24.5 181t-27.5 126t-11 53.5z" />
<glyph unicode="(" horiz-adv-x="737" d="M127 626.5q0 153.5 47 307t117.5 267.5t138.5 193t121 117q16 12 22 13q14 0 15 -17q0 -8 -15 -22q-100 -100 -196 -327.5t-96 -504.5q0 -295 74.5 -497.5t215.5 -370.5q14 -18 15 -25q0 -14 -15 -14q-4 0 -18 10q-68 49 -135.5 127t-136 187.5t-111.5 256t-43 300z" />
<glyph unicode=")" horiz-adv-x="737" d="M150 -238q0 8 14 23q100 100 196.5 327.5t96.5 503.5q0 295 -75 498t-216 371q-14 18 -14 24q0 14 14 15q4 0 18 -11q68 -49 135.5 -126.5t136 -187t111.5 -255t43 -297.5q0 -203 -83 -403.5t-174 -315t-167 -170.5q-16 -12 -22 -12q-14 0 -14 16z" />
<glyph unicode="*" horiz-adv-x="716" d="M68 1475q0 16 20 16q39 0 113.5 -48t117.5 -83q8 -4 17 -2q2 4 2 14q2 18 -20.5 99t-32.5 102q-8 16 -9 22q0 14 51.5 37t80.5 23q16 0 16 -23q0 -84 -55 -260q-4 -8 0 -14q2 -2 10 0q59 16 115.5 53t76.5 59q18 14 21 15q12 0 34.5 -50.5t22.5 -78.5q0 -12 -24 -19 q-2 0 -236 -8q-4 0 -12 -4q-4 -4 2 -14q16 -29 83.5 -83t88.5 -61q23 -8 22 -18q0 -25 -40.5 -63.5t-63.5 -38.5q-12 0 -29 28q-49 90 -88 211q-6 12 -8 12q-6 0 -8 -6q-8 -12 -39 -80.5t-39 -89.5q-12 -43 -12 -47q0 -10 -25 -10q-49 0 -89 8t-40 19q0 14 14 32 q25 35 205 187q6 6 6 12t-8 6q-55 14 -194 14q-8 0 -17 -4l-8 -2q-22 1 -22 138z" />
<glyph unicode="+" horiz-adv-x="1044" d="M86 498v104h383v383h106v-383h383v-104h-380v-383h-107v383h-385z" />
<glyph unicode="," horiz-adv-x="512" d="M158 141q0 41 42 76t85 35q12 0 37 -39q35 -53 34 -88q0 -27 -20 -80q-61 -143 -131 -219q-14 -18 -27 -19q-14 0 -14 15l14 28q49 84 49 146q0 55 -34.5 98t-34.5 47z" />
<glyph unicode="-" horiz-adv-x="798" d="M74 504l30 114q4 16 46 17h516q61 0 61 -21q0 -4 -1 -7t-4 -6t-6 -5t-8.5 -4t-9.5 -3t-10 -3t-10 -2t-11.5 -2t-11.5 -2q-457 -68 -487 -76q-16 -4 -36 -12l-32 -14q-12 -5 -16 -5q-16 0 -10 31z" />
<glyph unicode="." horiz-adv-x="512" d="M143 113q0 41 29 76.5t84 35.5q49 0 81 -28.5t32 -77.5q0 -51 -32 -85t-83 -34q-53 0 -82 35t-29 78z" />
<glyph unicode="/" horiz-adv-x="1130" d="M47 12q-12 6 2 31l944 1513q12 18 29 9l61 -37q12 -8 4 -21l-950 -1527q-10 -18 -24 -11z" />
<glyph unicode="0" d="M86 721q0 373 137 611.5t377 238.5q133 0 232.5 -79t150.5 -201t75.5 -242.5t24.5 -233.5q0 -369 -137 -609.5t-379 -240.5q-152 0 -264.5 115t-164.5 283t-52 358zM252 805q0 -139 20.5 -271.5t62.5 -245t112.5 -180t160.5 -67.5q137 0 223.5 191.5t86.5 494.5 q0 199 -40 371t-124 284.5t-195 112.5q-141 0 -224 -188.5t-83 -501.5z" />
<glyph unicode="1" d="M227 1262q0 10 15 20l395 264q37 25 49 25q23 0 23 -43l-2 -70l-5.5 -195.5t-3.5 -267.5l-2 -379q-4 -350 11 -471q6 -53 21 -75.5t60 -32.5q61 -12 136 -12q18 0 18 -17q0 -14 -35 -14q-68 0 -138.5 1t-113.5 3l-43 2l-51 -2q-53 -2 -129 -3t-133 -1q-35 0 -35 14 q0 16 17 17q96 0 163 14q49 8 65.5 31.5t20.5 74.5q6 90 7 471v359v311q0 35 -7.5 49.5t-29.5 14.5q-29 0 -234 -99q-14 -8 -24 -8q-15 1 -15 19z" />
<glyph unicode="2" d="M72 29q0 16 37 49l170 153q63 57 149 142.5t135 145t105.5 139t86 148t49 149.5t19.5 163q0 104 -30.5 182t-80.5 118t-104.5 59.5t-109.5 19.5q-135 0 -219 -78q-72 -70 -72 -198q0 -31 -19 -31q-14 0 -16 27q-12 111 -12 251q0 16 20 31q156 72 361 72q221 0 342 -120 t121 -294q0 -117 -49.5 -241.5t-118 -224t-171 -207t-180.5 -177.5l-172 -151l-22 -18.5t-6 -10.5t10 -4h149q258 0 351 10q199 18 239 197q8 31 25 30q12 0 12 -30q0 -59 -61 -269q-12 -39 -39 -50t-94 -11h-777q-10 0 -19 8.5t-9 20.5z" />
<glyph unicode="3" d="M137 72q0 152 15 256q4 31 16 30.5t14 -28.5q25 -276 307 -277q164 0 267.5 93.5t103.5 269.5q0 96 -39 172t-102.5 121t-120.5 68.5t-117 35.5q-53 10 -53 26.5t47 24.5q45 8 95.5 31t104.5 63.5t90 109.5t36 153q0 39 -13.5 80.5t-43 89t-92 77t-146.5 29.5 q-115 0 -186.5 -63.5t-71.5 -178.5q0 -25 -15 -24q-12 0 -14 22q-14 115 -14 205q0 25 26 43q143 70 332 70q117 0 203 -33t127 -84t58.5 -98t17.5 -92q0 -72 -33 -138.5t-82 -112.5t-89 -75t-71 -43v-10q123 -29 230.5 -131.5t107.5 -261.5q0 -219 -172 -373t-440 -154 q-63 0 -140 15.5t-110 33.5q-33 21 -33 58z" />
<glyph unicode="4" d="M29 485q0 20 18 43q8 10 349 471l395 535q27 37 43 37q20 0 20 -35q0 -4 -1 -123t-1 -184v-658h156q25 0 43 5.5t28.5 11.5t12.5 6q10 0 10 -25q0 -27 -19 -82q-14 -27 -43 -26h-188q0 -270 4 -316q4 -49 22.5 -74.5t65.5 -37.5q39 -8 90 -8q18 0 19 -17q0 -14 -33 -14 q-49 0 -110.5 1t-102.5 3t-45 2t-40 -2t-92.5 -3t-105.5 -1q-33 0 -32 14q0 16 16 17q47 0 96 6q47 6 64.5 33.5t23.5 80.5q4 45 4 316h-624q-43 -1 -43 24zM172 571h524v725h-4q-20 -35 -249 -351z" />
<glyph unicode="5" d="M158 59q0 205 8 258q8 37 18 37q16 0 17 -35q0 -152 75.5 -208t204.5 -56q145 0 253 100.5t108 297.5q0 117 -58.5 215t-143.5 155.5t-169 90t-149 36.5q-57 2 -54 37l47 522q2 27 39 27h482q70 0 118 8l28 4q13 2 15 2q14 0 15 -20q0 -63 -27 -258q-4 -23 -16.5 -23 t-12.5 27q0 68 -34.5 99.5t-145.5 31.5h-387l-29 -315q84 -12 167 -38t170 -72t152.5 -106.5t107.5 -150.5t42 -195q0 -219 -162.5 -392t-451.5 -173q-123 0 -188 37q-39 20 -39 57z" />
<glyph unicode="6" d="M100 555q0 297 205 584.5t504 416.5q33 14 43 15q16 0 16 -19q0 -14 -39 -36q-225 -125 -387.5 -375t-162.5 -586q0 -201 89 -356.5t253 -155.5q127 0 209.5 96.5t82.5 259.5q0 197 -100 313.5t-209 116.5q-98 0 -153 -26q-25 -8 -27 -8q-8 0 -8 16q0 12 18 25 q102 72 238 71q197 0 304 -129t107 -286q0 -246 -147 -390q-143 -137 -354 -137q-219 0 -350.5 157t-131.5 433z" />
<glyph unicode="7" d="M168 1202q0 39 15.5 180.5t15.5 145.5q0 29 20 28q2 0 23.5 -5t66.5 -10t105 -5h663q37 0 37 -20q0 -18 -12 -39q-129 -190 -320.5 -655.5t-214.5 -659.5v-72q0 -29 -83 -77t-117 -48q-18 0 -19 21q0 33 12 69q70 233 234 608t377 744h-504q-129 0 -191 -51 q-68 -53 -77 -158q-4 -29 -19 -29q-12 0 -12 33z" />
<glyph unicode="8" d="M109 362q0 160 104 278t260 179q-137 82 -212 170t-75 215q0 135 115 251t322 116q164 0 269 -83t105 -231q0 -250 -292 -395q68 -35 115.5 -66.5t110 -86t96.5 -130t34 -163.5q0 -184 -137.5 -317.5t-350.5 -133.5q-199 0 -331.5 108.5t-132.5 288.5zM266 383 q0 -139 92.5 -239.5t231.5 -100.5t226 93t87 233q0 80 -27.5 143t-87 114.5t-108.5 83t-137 76.5q-277 -135 -277 -403zM332 1243q0 -117 75.5 -191.5t227.5 -156.5q43 27 69.5 46.5t67.5 60t61.5 99t20.5 132.5q0 119 -69.5 193.5t-186.5 74.5q-127 0 -196.5 -81 t-69.5 -177z" />
<glyph unicode="9" d="M100 1094q0 211 138.5 344t351.5 133q211 0 340 -159t129 -398q0 -164 -50.5 -317.5t-126 -266.5t-176 -211t-186.5 -157.5t-170 -102.5q-16 -8 -32.5 -8t-16.5 20q0 18 21 29q96 53 189 139t178 205t137.5 278.5t52.5 331.5q0 256 -97.5 398.5t-240.5 142.5 q-131 0 -206 -92t-75 -221q0 -119 39 -206t95.5 -127t100.5 -57.5t72 -17.5q104 0 164 37q18 12 27 12q10 0 10 -14q0 -8 -8 -16q-88 -94 -246 -95q-201 0 -307.5 123t-106.5 273z" />
<glyph unicode=":" horiz-adv-x="512" d="M143 174q0 41 29 77t84 36q49 0 81 -29t32 -78q0 -51 -32 -85t-83 -34q-53 0 -82 35t-29 78zM143 866q0 41 29 77t84 36q49 0 81 -28.5t32 -78.5q0 -51 -32 -84.5t-83 -33.5q-53 0 -82 34.5t-29 77.5z" />
<glyph unicode=";" horiz-adv-x="512" d="M143 866q0 41 29 77t84 36q49 0 81 -28.5t32 -78.5q0 -51 -32 -84.5t-83 -33.5q-53 0 -82 34.5t-29 77.5zM168 141q0 41 42 76t85 35q12 0 37 -39q35 -53 35 -88q0 -27 -21 -80q-61 -143 -131 -219q-14 -18 -27 -19q-14 0 -14 15l14 28q49 84 50 146q0 55 -35 98t-35 47z " />
<glyph unicode="&#x3c;" horiz-adv-x="1044" d="M51 485v109l873 401v-108l-760 -348l760 -351v-108z" />
<glyph unicode="=" horiz-adv-x="1044" d="M86 313v105h872v-105h-872zM86 674v104h872v-104h-872z" />
<glyph unicode="&#x3e;" horiz-adv-x="1044" d="M86 80v108l762 351l-762 348v108l872 -401v-109z" />
<glyph unicode="?" horiz-adv-x="999" d="M143 1456q0 18 23 33q137 82 340 82q186 0 278.5 -96.5t92.5 -223.5q0 -70 -15.5 -127t-53.5 -115.5t-73 -99.5l-101 -115q-67 -75 -110 -130q-84 -106 -84 -164q0 -51 39 -105q18 -25 19 -35q0 -6 -8.5 -12t-14.5 -6q-29 0 -86 72q-59 74 -59 121q0 45 45 102 q25 33 73 88t68 82q102 131 141 227t39 203q0 96 -57 180t-182 84q-137 0 -201 -80q-61 -74 -72 -190q-4 -35 -16 -35q-14 0 -16 21q-9 38 -9 239zM356 70q0 39 27 71.5t78 32.5q45 0 74.5 -27.5t29.5 -70.5q0 -47 -29.5 -79t-76.5 -32q-49 0 -76 32t-27 73z" />
<glyph unicode="@" horiz-adv-x="1855" d="M135 449q0 244 126 458.5t339 343.5t457 129q326 0 494.5 -157.5t168.5 -421.5q0 -158 -72.5 -294t-201.5 -222t-256 -86q-49 0 -89 28.5t-54 75.5q-20 72 -13 205l-6 2q-96 -143 -199.5 -223t-173.5 -80q-45 0 -76.5 57.5t-31.5 136.5q0 303 244 488q154 115 264 115 q59 0 114 -25q16 20 54.5 50t64.5 38q8 2 14.5 -5t2.5 -18q-53 -86 -76 -163q-39 -133 -53 -314q-4 -76 -3 -138t33.5 -103t98.5 -41q129 0 225 142t96 368q0 233 -152.5 383.5t-431.5 150.5q-352 0 -561 -244.5t-209 -619.5q0 -285 162 -447.5t424 -162.5q188 0 304 46 t235 140q45 37 55 14q8 -14 -33 -55q-90 -88 -252.5 -154.5t-353.5 -66.5q-293 0 -485.5 171t-192.5 499zM696 449q0 -45 13.5 -85t35.5 -40q51 0 144.5 95t152.5 193q35 172 74 283q-61 37 -125 37q-152 0 -233 -189q-62 -144 -62 -294z" />
<glyph unicode="A" horiz-adv-x="1433" d="M-55 10q0 12 18 13q27 0 60 4q66 8 102.5 56t69.5 136l464 1272q29 80 45.5 80t45.5 -74l477 -1235q82 -201 176 -227q37 -12 82 -12q20 0 20 -13q0 -16 -41 -16q-180 0 -321 4q-61 4 -61.5 14.5t14.5 14.5q18 7 18 27q0 12 -6 28l-190 504q-6 12 -19 12h-440 q-14 0 -21 -16l-123 -363q-29 -80 -28 -137q0 -29 23.5 -44t54.5 -15h20q20 0 21 -13q0 -16 -31 -16q-29 0 -90.5 3t-69.5 3q-2 0 -88 -3t-143 -3q-39 0 -39 16zM475 686q-2 -5 -2 -8q0 -6 8 -6h391q12 0 9 14l-195 553q-7 24 -14.5 24t-16.5 -24z" />
<glyph unicode="B" horiz-adv-x="1406" d="M186 1526q0 16 33 16q41 0 96.5 -1t94.5 -3t41 -2q18 0 94 3t129 3q119 0 205 -32.5t127 -84t59 -98.5t18 -92q0 -78 -31.5 -150.5t-64.5 -111.5t-96 -107q135 -43 244.5 -155.5t109.5 -276.5q0 -180 -137 -313t-385 -133q-10 0 -33.5 1t-56.5 3t-58 2q-88 6 -124 6 q-39 0 -82 -2q-23 0 -64 -2t-55 -2q-33 0 -33 16q0 12 16 13q25 0 62 8q45 8 59 112q10 86 11 445v360q0 377 -5 443q-4 55 -21 80.5t-67 35.5q-25 6 -69 6q-17 1 -17 13zM528 686q0 -412 2 -442q4 -61 7.5 -83t17.5 -42.5t45 -34.5q63 -31 180 -31q47 0 93.5 13.5t92.5 44 t74.5 91t28.5 142.5q0 111 -46 223.5t-153 186.5q-70 47 -170 59q-27 4 -159 4q-12 0 -13 -14v-117zM528 903q0 -16 15 -22q49 -8 125 -9q90 0 122.5 9.5t63.5 44.5q74 84 74 207q0 143 -68.5 247.5t-208.5 104.5q-57 0 -98 -10q-25 -6 -25 -23v-549z" />
<glyph unicode="C" horiz-adv-x="1648" d="M131 793q0 129 53.5 282.5t175.5 276.5q219 219 625 219q164 0 297 -25q145 -27 209 -30q27 -2 27 -23q0 -6 -2.5 -19.5t-4.5 -39t-4 -56.5q-2 -37 -4 -117.5t-2 -93.5q-2 -43 -18.5 -43t-16.5 43q0 135 -86 209q-57 49 -168.5 83t-240.5 34q-317 0 -471 -150 q-104 -100 -144.5 -230t-40.5 -304q0 -303 210 -526.5t530 -223.5q256 0 356 103q57 59 76 172q6 31 20.5 31t14.5 -31q0 -16 -15.5 -116.5t-29.5 -145.5q-8 -29 -16.5 -38t-37.5 -22q-117 -47 -368 -47q-430 0 -676 221q-248 224 -248 607z" />
<glyph unicode="D" horiz-adv-x="1878" d="M186 1526q0 16 33 16q41 0 96.5 -1t94.5 -3t41 -2l102 4q100 2 174 2h39q90 0 143.5 -1t153.5 -13t174 -35t160 -70t151 -114q199 -207 199 -521q0 -344 -221 -577q-225 -236 -621 -236q-109 0 -284 13q-37 2 -79 5t-64.5 5t-26.5 2q-39 0 -82 -2q-23 0 -64 -2t-55 -2 q-33 0 -33 16q0 12 16 13q25 0 62 8q45 8 59 112q10 86 11 445v360q0 377 -5 443q-4 55 -21 80.5t-67 35.5q-25 6 -69 6q-17 1 -17 13zM537 727q0 -367 4 -444q6 -131 22 -156q55 -82 348 -82q297 0 488 191q78 76 121 210t43 279q0 309 -197 516q-131 139 -292 185.5 t-378 46.5q-104 0 -133 -15q-25 -10 -24 -41q-2 -70 -2 -436v-254z" />
<glyph unicode="E" horiz-adv-x="1249" d="M186 1526q0 16 33 16q102 0 148 -2l84 -4q422 0 469 2q59 4 88 10q4 0 13 5.5t15 5.5q8 0 8 -19q0 -6 -3 -17.5t-7 -33t-6 -45.5q0 -4 -4 -62.5t-6 -72.5q-4 -23 -14 -23q-16 0 -17 27q0 45 -12 73.5t-41 45t-105 24.5q-51 6 -280 6q-12 0 -12 -20v-565q0 -20 12 -21 q279 0 325 4q76 6 97 29q23 27 30 26q10 0 11 -16q0 -4 -3 -18.5t-7.5 -41t-6.5 -55.5q-8 -82 -8 -131q0 -39 -14.5 -39t-14.5 19q0 41 -8 67q-18 63 -106 72q-92 10 -293 10q-14 0 -14 -14v-180v-350q4 -106 46 -137t191 -31q143 0 197 22q72 31 92 148q6 31 18.5 30.5 t12.5 -30.5q0 -14 -10.5 -92t-16.5 -107q-10 -39 -28.5 -46t-82.5 -7q-106 0 -346 6q-119 6 -159 6q-39 0 -82 -2q-23 0 -64 -2t-55 -2q-33 0 -33 16q0 12 16 13q25 0 62 8q45 8 59 112q10 86 11 445v360q0 377 -5 443q-4 55 -21 80.5t-67 35.5q-25 6 -69 6q-17 1 -17 13z " />
<glyph unicode="F" horiz-adv-x="1212" d="M186 1526q0 16 33 16q102 0 148 -2l84 -4q22 -1 125 -1h124q217 1 254 3q78 4 90 8l15 7q10 5 14 6q12 0 12 -19q0 -6 -3 -17.5t-7 -33t-6 -45.5q0 -4 -4 -62.5t-6 -72.5q-4 -23 -17 -23q-14 0 -14 25q0 37 -18 78q-10 25 -47 44t-93 21l-315 6q-18 0 -18 -22v-566 q0 -18 14 -18l262 2q63 0 92 2q74 6 94 37q16 20 23 20q10 0 10 -16q0 -4 -3 -18.5t-7 -41t-6 -55.5q-8 -82 -8 -137q0 -39 -14.5 -39t-14.5 19q-6 53 -12 73q-23 63 -107 74q-51 6 -309 6q-14 0 -14 -18v-174q0 -358 10 -445q6 -51 21.5 -78.5t58.5 -33.5q57 -8 92 -8 q16 0 16 -13q0 -16 -33 -16q-49 0 -109.5 1t-100 3t-41.5 2t-40 -2t-86.5 -3t-74.5 -1q-33 0 -33 16q0 12 16 13q25 0 62 8q45 8 59 112q10 86 11 445v360q0 377 -5 443q-4 55 -21 80.5t-67 35.5q-25 6 -69 6q-17 1 -17 13z" />
<glyph unicode="G" horiz-adv-x="1765" d="M131 768q0 231 96.5 405.5t245.5 268.5q207 129 545 129q147 0 313 -35q70 -16 166 -20q25 -2 25 -19q0 -6 -3 -38t-7.5 -97.5t-4.5 -155.5q0 -43 -18 -43q-10 0 -14 31q-6 76 -43 135q-43 66 -170 116t-312 50q-266 0 -438 -135q-92 -74 -147.5 -210t-55.5 -310 q0 -190 71 -342t146 -226q225 -219 537 -219q160 0 233 43q41 23 41 72v348q0 125 -15 160t-77 51q-25 6 -69 6q-16 0 -17 12q0 16 33 17q41 0 96 -2t94 -3t41 -1t40 1t86 3t75 2q33 0 33 -17q0 -12 -17 -12q-14 0 -51 -6q-41 -8 -56 -34.5t-20 -82.5q-4 -66 -4 -213v-229 q0 -68 -4 -84t-22 -27q-174 -92 -434 -92q-424 0 -674 219q-102 88 -173 246t-71 338z" />
<glyph unicode="H" horiz-adv-x="1966" d="M186 1526q0 16 33 16q41 0 96.5 -1t94.5 -3t41 -2t39.5 2t86 3t74.5 1q33 0 33 -16q0 -12 -16 -13q-14 0 -52 -6q-41 -8 -56 -34.5t-19 -81.5q-4 -66 -4 -443v-43q0 -12 12 -12h868q12 0 13 12v43q0 377 -5 443q-4 55 -21.5 80.5t-66.5 35.5q-25 6 -69 6q-16 0 -17 13 q0 16 33 16q41 0 96.5 -1t94 -3t41 -2t40 2t86 3t74.5 1q33 0 33 -16q0 -12 -16 -13q-14 0 -52 -6q-41 -8 -56 -34.5t-19 -81.5q-4 -66 -4 -443v-360q0 -358 10 -445q6 -51 21.5 -78.5t58.5 -33.5q57 -8 92 -8q16 0 16 -13q0 -16 -33 -16q-49 0 -109.5 1t-100 3t-42 2 t-40 -2t-86 -3t-74.5 -1q-33 0 -33 16q0 12 16 13q25 0 62 8q45 8 59 112q10 86 11 445v215q0 12 -13 12h-868q-12 0 -12 -12v-215q0 -358 10 -445q6 -51 21.5 -78.5t58.5 -33.5q57 -8 92 -8q16 0 16 -13q0 -16 -33 -16q-49 0 -109.5 1t-100 3t-41.5 2t-40 -2t-86.5 -3 t-74.5 -1q-33 0 -33 16q0 12 16 13q25 0 62 8q45 8 59 112q10 86 11 445v360q0 377 -5 443q-4 55 -21 80.5t-67 35.5q-25 6 -69 6q-17 1 -17 13z" />
<glyph unicode="I" horiz-adv-x="901" d="M211 1526q0 16 33 16q31 0 80 -1t87 -3t40 -2t39.5 2t86 3t74.5 1q33 0 33 -16q0 -12 -16 -13q-14 0 -52 -6q-41 -8 -56 -34.5t-19 -81.5q-4 -66 -4 -443v-360q0 -358 10 -445q6 -51 21.5 -78.5t58.5 -33.5q57 -8 92 -8q16 0 16 -13q0 -16 -33 -16q-49 0 -109.5 1t-100 3 t-41.5 2t-40 -2t-86.5 -3t-74.5 -1q-33 0 -33 16q0 12 16 13q25 0 62 8q45 8 59 112q10 86 11 445v360q0 377 -5 443q-6 100 -69 114q-31 8 -64 8q-16 1 -16 13z" />
<glyph unicode="J" horiz-adv-x="847" d="M68 -504q0 12 28 31q35 20 72 57q76 76 112.5 144.5t60.5 220t24 407.5v592q0 377 -5 443q-4 55 -21 80.5t-67 35.5q-25 6 -69 6q-16 0 -17 13q0 16 33 16q41 0 96.5 -1t94.5 -3t41 -2t39.5 2t86 3t74.5 1q33 0 33 -16q0 -12 -16 -13q-14 0 -52 -6q-41 -8 -56 -34.5 t-19 -81.5q-4 -66 -4 -443v-491q0 -281 -9.5 -392.5t-52.5 -211.5q-63 -150 -299 -314q-59 -41 -80 -51q-8 -4 -14 -4q-14 0 -14 12z" />
<glyph unicode="K" horiz-adv-x="1540" d="M186 1526q0 16 33 16q41 0 94.5 -1t91 -3t39.5 -2q4 0 83 3t116 3q33 0 33 -16q0 -12 -17 -13q-14 0 -51 -6q-41 -8 -56 -34.5t-20 -81.5q-4 -66 -4 -443v-123h9q16 18 228 235.5t251 260.5q111 115 110.5 147.5t-26.5 42.5q-18 8 -19 17q0 14 25 14q20 0 73.5 -3 t80.5 -3l83 4q82 2 113 2t31 -14.5t-21 -14.5q-51 0 -114 -28q-20 -8 -40 -20.5t-33 -21.5t-36 -29l-33 -29l-39 -36l-41 -40q-381 -367 -450 -449q45 -51 275.5 -287.5t287.5 -289.5q139 -129 187.5 -167t117.5 -67q63 -27 127 -26q27 0 27 -13q0 -16 -45 -16h-105 q-96 0 -141 4q-51 4 -96 24.5t-68 36.5l-84 64q-66 53 -305.5 310t-318.5 355h-11v-200q0 -358 11 -445q6 -51 21 -78.5t58 -33.5q57 -8 80 -8q16 0 17 -13q0 -16 -33 -16q-45 0 -99.5 1t-93 3t-43.5 2q-2 0 -80.5 -3t-115.5 -3q-33 0 -33 16q0 12 16 13q25 0 62 8 q45 8 59 112q10 86 11 445v360q0 377 -5 443q-4 55 -21 80.5t-67 35.5q-25 6 -69 6q-17 1 -17 13z" />
<glyph unicode="L" horiz-adv-x="1212" d="M186 1526q0 16 33 16q41 0 96.5 -1t94.5 -3t41 -2t45 2t96 3t80 1q33 0 33 -16q0 -12 -17 -13q-31 0 -67 -6q-43 -8 -59.5 -34.5t-20.5 -81.5q-4 -66 -4 -443v-364q0 -236 9 -339.5t36 -129.5q47 -47 245 -47q100 0 157.5 10t90.5 51q43 51 53 123q4 27 19 27 q12 0 12 -31q0 -94 -31 -205q-10 -37 -30.5 -46t-98.5 -9q-82 0 -340 6q-129 6 -208 6h-29q-31 -2 -55 -2q-82 -4 -117 -4q-33 0 -33 16q0 12 16 13q25 0 62 8q45 8 59 112q10 86 11 445v360q0 377 -5 443q-4 55 -21 80.5t-67 35.5q-25 6 -69 6q-17 1 -17 13z" />
<glyph unicode="M" horiz-adv-x="2150" d="M102 12q0 10 21 11q31 0 61 6q25 4 40.5 18t23.5 44t11 47.5t7 60.5l148 1335q4 37 22 37q16 0 31 -31l627 -1288l602 1286q14 33 30 33q18 0 25 -55l137 -1258q20 -188 111 -217q59 -18 133 -18q16 0 16 -11q0 -18 -43 -18q-190 0 -342 12q-57 4 -57 21q0 12 14 14 q11 3 11 35q0 16 -2 39l-99 1056h-6l-502 -1065q-47 -100 -57 -106q-4 -2 -10 -2q-14 0 -64 94l-239 475l-137 291q-120 256 -134 293h-8l-82 -950q-2 -33 -2 -105q0 -23 15.5 -41t37.5 -22q43 -10 78 -10q16 0 17 -11q0 -18 -37 -18q-45 0 -119 2l-72 4q-4 0 -71.5 -3 t-100.5 -3q-35 0 -35 18z" />
<glyph unicode="N" horiz-adv-x="1939" d="M135 10q0 12 17 13q47 0 84 12q37 10 49 63.5t12 196.5l2 1173q0 102 23 103q8 0 19 -10.5t29.5 -31t22.5 -24.5l651 -702l284 -309q177 -195 208 -226l-23 1041q-2 102 -17 142t-62 52q-45 10 -101 10q-16 0 -16 14.5t41 14.5q55 0 133 -3t80 -3q4 0 64.5 3t109.5 3 q37 0 37 -14.5t-23 -14.5q-25 0 -49 -6q-49 -10 -62.5 -47t-13.5 -135l-4 -1200q0 -51 -1 -80t-3 -43t-5 -18t-9 -4q-18 0 -150 131l-96 97l-212 218l-226 240l-535 587l27 -981q2 -125 19.5 -175t60.5 -62q47 -12 102 -12q16 0 16 -13q0 -16 -36 -16q-51 0 -101.5 1t-81 3 t-34.5 2l-70 -4q-72 -2 -127 -2q-33 0 -33 16z" />
<glyph unicode="O" horiz-adv-x="1873" d="M131 770q0 131 48 266t141.5 257t255 200t362.5 78q352 0 578.5 -208t226.5 -560t-227.5 -595t-589.5 -243q-162 0 -297 48t-225.5 128t-154 186.5t-91 217t-27.5 225.5zM326 827q0 -352 186 -568t469 -216q63 0 130 15.5t147.5 61.5t142 119.5t103.5 204.5t42 301 q0 352 -182 554t-440 202q-266 0 -432 -174t-166 -500z" />
<glyph unicode="P" horiz-adv-x="1314" d="M186 1526q0 16 33 16q41 0 94.5 -1t93 -3t44.5 -2q16 0 110 3t148 3q256 0 381 -117q102 -98 102 -243q0 -217 -142.5 -352.5t-361.5 -135.5q-33 0 -43 2q-23 0 -22 15q0 18 55 18q150 0 252 96.5t102 237.5q0 199 -114 315q-100 102 -281 103q-59 0 -88 -13 q-16 -6 -17 -38v-842q0 -358 11 -445q6 -51 21.5 -78.5t58.5 -33.5q57 -8 92 -8q16 0 16 -13q0 -16 -33 -16q-49 0 -109.5 1t-100 3t-42.5 2l-36 -2q-37 -2 -85.5 -3t-74.5 -1q-33 0 -33 16q0 12 16 13q25 0 62 8q45 8 59 112q10 86 11 445v360q0 377 -5 443q-4 55 -21 80.5 t-67 35.5q-25 6 -69 6q-17 1 -17 13z" />
<glyph unicode="Q" horiz-adv-x="1884" d="M131 770q0 131 48 266t141.5 257t255 200t362.5 78q352 0 578.5 -209t226.5 -559q0 -127 -37 -245t-95.5 -203t-115.5 -144t-115 -96l420 -217q469 -242 862 -242q207 0 404 80q25 8 29 8q12 0 12 -12.5t-17 -20.5q-309 -141 -649 -141q-350 0 -844 274l-344 191 q-55 -29 -147 -49.5t-174 -20.5q-203 0 -362.5 73t-252 192.5t-139.5 257t-47 282.5zM326 827q0 -352 186 -568t469 -216q63 0 130 15.5t147.5 61.5t142 119.5t103.5 204.5t42 301q0 352 -182 554t-440 202q-266 0 -432 -174t-166 -500z" />
<glyph unicode="R" horiz-adv-x="1544" d="M186 1526q0 16 33 16q41 0 96.5 -1t94.5 -3t41 -2q6 0 105 3t136 3q250 0 375 -90q51 -37 96 -110.5t45 -167.5q0 -244 -247 -474q326 -418 425 -524q121 -127 250 -147q39 -6 80 -6q18 0 19 -13q0 -16 -49 -16h-146q-147 0 -219 39q-41 23 -91 74t-75 82l-111 145 l-223 303q-12 12 -26 12l-252 4q-14 0 -15 -16v-49q0 -358 11 -445q6 -51 21 -78.5t58 -33.5q57 -8 93 -8q16 0 16 -13q0 -16 -33 -16q-49 0 -109.5 1t-100.5 3t-42 2h-14q-14 -2 -36.5 -2t-47.5 -1l-51 -2q-27 -1 -43 -1q-33 0 -33 16q0 12 16 13q25 0 62 8q45 8 59 112 q10 86 11 445v360q0 377 -5 443q-4 55 -21 80.5t-67 35.5q-25 6 -69 6q-17 1 -17 13zM528 770q0 -16 15 -25q55 -33 215 -32q98 0 153 39q125 86 125 315q0 193 -95 301.5t-259 108.5q-96 0 -137 -13q-16 -6 -17 -24v-670z" />
<glyph unicode="S" horiz-adv-x="1167" d="M203 98q0 53 10 217q2 33 16.5 33t14.5 -22q0 -47 6 -76q23 -106 106.5 -157.5t196.5 -51.5q139 0 216 82t77 190q0 104 -50.5 180t-185.5 189l-92 76q-154 125 -210 227t-56 217q0 166 114.5 267.5t309.5 101.5q104 0 190 -21q49 -10 72 -10q20 0 20 -14l-2 -27 q-2 -27 -4 -78t-2 -112q0 -47 -14 -47q-12 0 -16 26q-6 63 -27 103q-59 109 -256 108q-109 0 -180.5 -64.5t-71.5 -172.5q0 -88 51 -159t199 -185l57 -46q174 -137 236.5 -243.5t62.5 -237.5q0 -82 -40 -177t-134 -163q-123 -86 -309 -86q-162 0 -275 55q-20 10 -25 22.5 t-5 55.5z" />
<glyph unicode="T" horiz-adv-x="1415" d="M51 1319q0 33 45 213q12 39 21 39q4 0 30.5 -11.5t59.5 -13.5q98 -10 162 -10h768q90 0 145 10l26 4q13 2 20 4t11 2q10 0 11 -24q0 -35 -3.5 -127t-3.5 -98q0 -27 -14 -27t-16 35l-2 22q-10 109 -252 113l-258 4v-866q0 -358 10 -445q6 -51 21.5 -78.5t58.5 -33.5 q57 -8 92 -8q16 0 16 -13q0 -16 -32 -16q-49 0 -109.5 1t-100.5 3t-42 2t-40 -2t-86 -3t-75 -1q-33 0 -33 16q0 12 17 13q25 0 61 8q45 8 59 112q10 86 11 445v866l-303 -4q-96 -2 -140.5 -15.5t-68.5 -50.5q-23 -35 -35 -63q-8 -20 -21 -21q-10 1 -10 19z" />
<glyph unicode="U" horiz-adv-x="1699" d="M68 1526q0 16 32 16q55 0 146 -2l90 -4q4 0 85 3t118 3q33 0 32 -16q0 -12 -16 -13q-14 0 -51 -6q-39 -6 -55.5 -32.5t-20.5 -83.5q-4 -66 -4 -443v-286q0 -205 40 -321t114 -185q70 -66 141.5 -89.5t167.5 -23.5q92 0 179 40t142 107q119 147 119 502v256q0 377 -4 443 q-4 55 -21.5 80.5t-66.5 35.5q-25 6 -70 6q-16 0 -16 13q0 16 33 16q41 0 92 -1t87 -3t38 -2t68.5 3t103.5 3q33 0 33 -16q0 -12 -17 -13q-14 0 -51 -6q-41 -8 -56.5 -34.5t-19.5 -81.5q-4 -66 -4 -443v-219q0 -203 -39 -358.5t-149 -253.5q-170 -152 -422 -152 q-268 0 -422 146q-178 170 -178 538v299q0 377 -4 443q-4 55 -21.5 80.5t-66.5 35.5q-25 6 -70 6q-16 1 -16 13z" />
<glyph unicode="V" horiz-adv-x="1519" d="M-53 1527.5q0 14.5 53 14.5q57 0 147.5 -3t92.5 -3t73.5 3t116.5 3q55 0 55 -14.5t-20 -14.5q-55 0 -78 -10q-27 -12 -27 -41q0 -27 56 -170l393 -1048q88 203 245.5 613.5t192.5 522.5q18 55 19 78q0 33 -27 47q-25 8 -78 8q-23 0 -22 13q0 16 45 16q49 0 122.5 -3 t77.5 -3l62 4q63 2 98 2t35 -14.5t-25 -14.5q-59 0 -98 -24q-49 -35 -113 -193l-229 -555q-219 -524 -264 -620l-17 -38l-14.5 -31.5l-11.5 -26t-10 -20.5t-9 -15l-6 -13q-2 -4 -5 -7t-6 -4t-7 -1q-16 0 -28.5 22.5t-45.5 104.5l-502 1256q-33 82 -61.5 111.5t-85.5 45.5 q-31 8 -78 8q-16 0 -16 14.5z" />
<glyph unicode="W" horiz-adv-x="2252" d="M-23 1527.5q0 14.5 33 14.5q63 0 154 -2l88 -4q6 0 38 2t80 3t93 1q37 0 37 -14.5t-21 -14.5q-55 0 -80 -12q-27 -14 -26 -49q0 -16 39 -188q29 -125 274 -992h4l434 1168q35 94 51.5 94t51.5 -96l407 -1162h8q10 39 141.5 465t174.5 580q23 84 22 131q0 61 -116 61 q-18 0 -18.5 14.5t34.5 14.5q45 0 93 -1t79 -3t37 -2l63 4q63 2 103 2q29 0 29 -12q0 -16 -19 -17q-41 0 -70 -10q-41 -14 -69.5 -66.5t-63.5 -154.5l-191 -580l-185 -561q-41 -117 -55.5 -146.5t-31.5 -29.5q-14 0 -26 21.5t-35 85.5l-401 1138h-4l-428 -1136 q-27 -68 -38.5 -88.5t-29.5 -20.5q-16 0 -28.5 29t-43.5 133l-364 1214q-25 80 -48.5 112t-64.5 48q-33 12 -92 12q-19 0 -19 14.5z" />
<glyph unicode="X" horiz-adv-x="1421" d="M-10 8.5q0 14.5 16 14.5q39 0 78 10q80 20 170 166l371 585l-328 551q-80 135 -160 164q-45 14 -86 14q-18 0 -18 14.5t34.5 14.5t135 -3t104.5 -3q2 0 77 3t116 3q35 0 35 -14.5t-19 -14.5q-39 0 -55 -6q-25 -8 -25 -34q0 -31 21 -68q141 -266 276 -490q47 66 167 257.5 t134 224.5q20 43 21 73q0 27 -35 37q-20 6 -62 6q-18 0 -18 14.5t35 14.5q47 0 113.5 -3t68.5 -3t66.5 3t105.5 3q33 0 33 -14.5t-23 -14.5q-39 0 -67 -10q-29 -8 -56.5 -34.5t-45 -50t-56.5 -81.5l-330 -495l114 -192l203 -338q97 -161 116 -185q55 -72 120 -92 q43 -12 72 -12q16 0 16 -13q0 -16 -28 -16q-223 0 -328 4q-63 2 -63 16.5t12 16.5q10 4 15 17t-5 40l-352 610l-320 -542q-27 -47 -26 -90q0 -31 32 -39q25 -4 39 -4q16 0 16.5 -14.5t-24.5 -14.5q-29 0 -109.5 3t-86.5 3q-4 0 -76 -3t-111 -3q-20 0 -20 14.5z" />
<glyph unicode="Y" horiz-adv-x="1339" d="M-63 1527.5q0 14.5 26 14.5q23 0 112 -3t91 -3q4 0 30.5 2t66.5 3t75 1q27 0 27 -14q0 -4 -31 -19q-27 -14 -27 -36q0 -31 27 -80l188 -326q162 -279 189 -322q25 55 158 290l182 313q35 55 34.5 104t-32.5 57q-31 10 -31 21q0 12 33 12q31 0 81 -3t54 -3q2 0 89 3t110 3 q27 0 26 -12q0 -16 -26 -17q-49 0 -95 -28q-45 -27 -108 -105q-49 -59 -206 -321t-185 -330q-31 -74 -31 -205v-176q0 -119 6 -205q6 -102 84 -112q57 -8 92 -8q16 0 17 -13q0 -16 -33 -16q-49 0 -109.5 1t-100.5 3t-42 2t-40 -2t-86 -3t-75 -1q-33 0 -33 16q0 12 17 13 q25 0 61 8q57 12 64 112q6 86 6 205v176q0 111 -47 215q-10 25 -158.5 268.5t-202.5 321.5q-72 106 -139 152q-49 33 -88 32q-20 0 -20 14.5z" />
<glyph unicode="Z" horiz-adv-x="1417" d="M150 16q0 14 28 58q668 1008 899 1384h-444q-217 0 -295 -41q-51 -27 -81 -74t-36 -88q-4 -37 -22 -36q-12 0 -12.5 26.5t40.5 272.5q6 39 21 38q6 0 29.5 -6t56.5 -8q145 -6 356 -6h572q41 0 41 -16q0 -12 -9 -25l-917 -1413h557q150 0 218.5 24.5t104.5 75.5 q31 45 41 111q6 33 19 33q16 0 16 -47q0 -66 -41 -236q-10 -37 -18 -45t-43 -8q-170 0 -516 5t-529 5q-36 0 -36 16z" />
<glyph unicode="[" horiz-adv-x="737" d="M199 -221v1718q0 16 6 21.5t28 5.5h349q25 0 24.5 -14.5t-35.5 -16.5q-164 -16 -223 -43q-14 -59 -14 -190v-1250q0 -131 14 -190q57 -27 221 -43q35 -2 35 -16.5t-24 -14.5h-349q-23 0 -27.5 5t-4.5 28z" />
<glyph unicode="\" horiz-adv-x="1073" d="M43 1432q-8 12 4 20l57 35q16 10 29 -8l897 -1438q14 -23 0 -29l-61 -41q-14 -6 -23 9z" />
<glyph unicode="]" horiz-adv-x="737" d="M131 -239.5q0 14.5 35 16.5q164 16 223 43q14 59 14 190v1250q0 131 -14 190q-57 27 -221 43q-35 2 -35 16.5t25 14.5h348q23 0 28 -5.5t5 -27.5v-1718q0 -16 -6.5 -21.5t-28.5 -5.5h-348q-25 0 -25 14.5z" />
<glyph unicode="^" horiz-adv-x="1044" d="M61 666l408 872h106l408 -872h-111l-350 759l-350 -759h-111z" />
<glyph unicode="_" horiz-adv-x="1024" d="M0 -154h1024v-102h-1024v102z" />
<glyph unicode="`" horiz-adv-x="1865" d="M606 1855q0 10 23 17q94 27 123 39q27 10 32 10q4 0 8.5 -4t9.5 -12.5t13 -16.5q61 -61 201 -149q39 -27 39 -29q0 -10 -19 -10q-49 0 -370 121q-60 22 -60 34z" />
<glyph unicode="a" horiz-adv-x="1277" d="M-53 8.5q0 14.5 16 14.5q25 0 53 4q57 6 89 45t63 114l424 1090q27 68 43 67q6 0 10 -2t8 -9l7 -12q3 -5 8.5 -18.5t9.5 -21.5q14 -31 97 -237l186 -457l149 -363q31 -72 61.5 -114.5t49 -55t43.5 -20.5q33 -10 71 -10q23 0 23 -14.5t-41 -14.5q-160 0 -285 4 q-63 4 -63 12q0 6 12 13q31 12 16 47l-161 399q-4 10 -17 10h-416q-12 0 -18 -14l-102 -279q-27 -70 -27 -116.5t61 -46.5h17q18 0 18 -14.5t-26 -14.5q-25 0 -89.5 3t-72.5 3q-2 0 -70.5 -3t-111.5 -3q-35 0 -35 14.5zM422 563q-1 -4 -1 -6q0 -6 7 -6h365q7 0 7 6q0 3 -1 6 l-178 477q-7 20 -15 20.5t-16 -20.5z" />
<glyph unicode="b" horiz-adv-x="1257" d="M164 1296q0 14 29 15q37 0 86 -1t84.5 -2t37.5 -1q16 0 90 2t121 2q106 0 185.5 -28t118 -72t57 -86t18.5 -81q0 -63 -29.5 -122.5t-62.5 -95t-90 -87.5q121 -37 219 -132t98 -230q0 -160 -117.5 -273.5t-334.5 -113.5q-70 0 -156 6q-115 4 -117 4h-12q-10 0 -27.5 -1 t-33.5 -1q-74 -4 -109 -4q-29 0 -29 14q0 10 15 10q10 0 30.5 4.5t24.5 4.5q16 2 26.5 18t12.5 29l8 49q10 72 10 377v307q0 319 -4 375q-4 49 -18 71.5t-55 28.5q-29 4 -62 4q-14 0 -14 10zM473 578q0 -344 2 -371q4 -70 13.5 -91.5t48.5 -39.5q53 -25 157 -25 q111 0 187.5 58.5t76.5 209.5q0 78 -38.5 168.5t-133.5 149.5q-29 18 -55 26.5t-64 13.5t-42 5q-23 4 -142 4q-10 0 -10 -12v-96zM473 770q0 -16 12 -18q41 -8 111 -9q80 0 114.5 8.5t61.5 36.5q70 78 70 187q0 113 -64.5 196.5t-189.5 83.5q-53 0 -92 -8q-23 -6 -23 -18 v-459z" />
<glyph unicode="c" horiz-adv-x="1449" d="M113 674q0 109 47 239.5t155 235.5q195 186 549 186q137 0 262 -20q137 -25 185 -27q23 0 22 -18q0 -6 -1 -16.5l-3 -33t-4 -49.5q0 -27 -1 -96t-3 -82q-2 -37 -21 -37q-14 0 -14 37q0 115 -76 174q-115 96 -354 97q-276 0 -405 -121q-92 -86 -127 -196.5t-35 -258.5 q0 -258 183 -444.5t466 -186.5q113 0 180.5 16.5t116.5 65.5q51 51 70 146q6 25 18 24q16 0 16 -24q0 -12 -15 -98.5t-28 -125.5q-8 -25 -15 -34t-30 -17q-100 -39 -325 -39q-379 0 -594 187q-219 188 -219 516z" />
<glyph unicode="d" horiz-adv-x="1656" d="M164 1296.5q0 14.5 29 14.5q37 0 86 -1t84.5 -2t37.5 -1q6 0 45 1t94.5 2t102.5 1q256 0 373 -23q219 -43 350 -176q176 -176 176 -442q0 -291 -194 -490q-195 -201 -547 -200q-57 0 -252 10q-129 10 -148 10h-12q-10 0 -27.5 -1t-33.5 -1q-74 -4 -109 -4q-29 0 -29 14.5 t15 14.5q23 0 55 8q16 4 25.5 18t12.5 27.5t9 46.5q10 72 10 377v307q0 319 -4 375q-4 49 -17 69.5t-56 26.5q-29 4 -62 4q-14 0 -14 14.5zM481 618q0 -346 2 -378q4 -104 21 -125q47 -70 299 -70q254 0 422 158q68 63 104.5 176t36.5 237q0 266 -170 437 q-117 119 -255 156.5t-329 37.5q-76 0 -108 -12q-23 -8 -23 -35v-582z" />
<glyph unicode="e" horiz-adv-x="1128" d="M164 1296.5q0 14.5 29 14.5q37 0 86 -1t84.5 -2t37.5 -1h430q16 0 82 10q2 0 11.5 4t13.5 4q8 0 8 -16q0 -4 -6 -29t-8 -53q0 -4 -4 -53.5t-6 -61.5q-4 -18 -17 -18q-14 0 -14 22q0 35 -10 62q-10 23 -35 34t-94 19q-47 6 -260 6q-10 0 -11 -18v-474q0 -18 11 -18 q260 0 301 4q70 6 88 25q23 23 26 22q10 0 11 -14q0 -4 -3.5 -15.5t-6.5 -34t-5 -46.5q-8 -70 -8 -113q0 -33 -16 -33q-12 0 -13 17q0 35 -8 57q-10 43 -92 53q-66 8 -272 8q-12 0 -13 -12v-145v-297q4 -88 43 -114t172 -26t181 19q37 16 55 43t26 78q6 27 18.5 26.5 t12.5 -26.5q0 -12 -9 -78t-15 -90q-8 -33 -25.5 -39t-75.5 -6q-92 0 -313 6q-76 4 -150 4q-39 0 -77 -2q-70 -4 -105 -4q-29 0 -29 14.5t15 14.5q10 0 30.5 4t24.5 4q16 2 25.5 17t12.5 27.5t9 47.5q10 72 10 377v307q0 319 -4 375q-4 49 -17 69.5t-56 26.5q-29 4 -62 4 q-14 0 -14 14.5z" />
<glyph unicode="f" horiz-adv-x="1095" d="M164 1296.5q0 14.5 29 14.5q37 0 85 -1t82.5 -2t36.5 -1h467q72 4 82 8q6 2 14.5 6t10.5 4q12 0 12 -16q0 -4 -2 -14.5t-6 -29t-6 -38.5q0 -4 -3 -53.5t-5 -61.5q-4 -18 -17 -18q-14 0 -14 20q0 29 -17 66q-8 18 -41.5 34.5t-80.5 16.5l-295 4q-14 0 -15 -18v-476 q0 -16 13 -16l245 2q57 0 82 2q63 6 84 31q14 18 23 18q10 0 10 -14q0 -4 -3 -15.5t-7 -34t-6 -46.5q-6 -53 -7 -117q0 -35 -16 -35q-12 0 -12 16q-4 45 -13 64q-14 43 -92 55q-31 4 -288 4q-12 0 -13 -16v-139q0 -309 8 -377q6 -43 18.5 -64.5t47.5 -27.5q53 -8 82 -8 q14 0 14 -14.5t-28 -14.5q-45 0 -98.5 1t-90.5 3l-37 2q-2 0 -35.5 -2t-75.5 -3t-67 -1q-29 0 -29 14.5t15 14.5q10 0 30.5 4t24.5 4q16 2 25.5 17t12.5 27.5t9 47.5q10 72 10 377v307q0 319 -4 375q-4 49 -17 69.5t-56 26.5q-29 4 -62 4q-14 0 -14 14.5z" />
<glyph unicode="g" horiz-adv-x="1554" d="M113 653q0 197 85 345.5t216 226.5q182 111 479 110q156 0 276 -28q84 -18 146 -19q23 0 22 -16q0 -6 -3 -33t-5 -82t-2 -131q0 -37 -20 -37q-12 0 -13 27q-6 66 -41 114q-39 55 -146.5 95.5t-268.5 40.5q-229 0 -377 -113q-82 -61 -130 -176t-48 -262q0 -162 61.5 -291 t128.5 -191q197 -182 461 -182q137 0 194 33q37 20 37 53v301q0 109 -12 137.5t-66 38.5q-29 4 -61 4q-14 0 -14 14.5t28 14.5q37 0 87.5 -1t87 -2t38.5 -1t35 1t75 2t67 1q29 0 28.5 -14.5t-14.5 -14.5q-25 0 -45 -4q-37 -6 -50.5 -27.5t-17.5 -68.5q-2 -55 -2 -180v-195 q0 -59 -4 -71.5t-20 -22.5q-150 -78 -383 -78q-375 0 -594 187q-90 76 -152.5 208.5t-62.5 286.5z" />
<glyph unicode="h" horiz-adv-x="1734" d="M164 1296.5q0 14.5 29 14.5q37 0 86 -1t83.5 -2t36.5 -1t36 1t76 2t67 1q29 0 28.5 -14.5t-14.5 -14.5q-25 0 -45 -4q-35 -8 -47.5 -27.5t-16.5 -68.5q-2 -55 -2 -379v-37q0 -10 11 -10h751q10 0 10 10v37q0 268 -4 379q-4 49 -17 69.5t-54 26.5q-29 4 -62 4 q-14 0 -14 14.5t28 14.5q35 0 84.5 -1t84 -2t36.5 -1q4 0 37 1t76 2t65 1q31 0 31 -14.5t-16 -14.5q-23 0 -45 -4q-35 -8 -46.5 -27.5t-15.5 -68.5q-4 -55 -4 -375v-307q0 -287 10 -377q4 -33 7.5 -47.5t17.5 -27.5t41 -17q49 -8 80 -8q16 0 16 -14.5t-30 -14.5 q-43 0 -96.5 1t-89.5 3t-38 2t-35.5 -2t-76.5 -3t-66 -1q-29 0 -29 14.5t15 14.5q20 0 53 8q39 8 49 94q8 72 8 371v174q0 10 -10 10h-751q-10 0 -11 -10v-174q0 -301 8 -373q4 -31 8.5 -46.5t18.5 -28.5t39 -17q53 -8 82 -8q14 0 14 -14.5t-28 -14.5q-45 0 -98.5 1t-90.5 3 l-35 2q-2 0 -36.5 -2t-76.5 -3t-67 -1q-29 0 -29 14.5t15 14.5q23 0 55 8q16 4 25.5 18t12.5 27.5t9 46.5q10 72 10 377v307q0 319 -4 375q-4 49 -17 69.5t-56 26.5q-29 4 -62 4q-14 0 -14 14.5z" />
<glyph unicode="i" horiz-adv-x="796" d="M186 1296.5q0 14.5 29 14.5q27 0 70 -1t76.5 -2t35.5 -1t36 1t77 2t68 1q29 0 28.5 -14.5t-14.5 -14.5q-25 0 -45 -4q-35 -8 -47.5 -27.5t-16.5 -68.5q-2 -55 -2 -375v-307q0 -305 8 -377q4 -31 8.5 -46.5t18.5 -28.5t39 -17q53 -8 82 -8q14 0 14 -14.5t-28 -14.5 q-45 0 -98.5 1t-90.5 3l-37 2q-2 0 -35.5 -2t-75.5 -3t-67 -1q-29 0 -29 14.5t15 14.5q23 0 55 8q37 8 47 92q10 90 10 377v307q0 319 -4 375q-6 84 -57 94q-31 6 -55 6q-15 0 -15 14.5z" />
<glyph unicode="j" horiz-adv-x="755" d="M59 -428q0 14 23 29q27 14 63 47q66 66 98.5 124t53 186t20.5 345v504q0 319 -4 375q-4 49 -17 69.5t-56 26.5q-29 4 -62 4q-14 0 -14 14.5t29 14.5q37 0 86 -1t84.5 -2t37.5 -1t35 1t75 2t67 1q29 0 28.5 -14.5t-14.5 -14.5q-25 0 -45 -4q-35 -8 -47.5 -27.5 t-16.5 -68.5q-2 -55 -2 -375v-418q0 -225 -10 -325.5t-49 -188.5q-57 -129 -264 -266q-37 -25 -74 -45l-4 -2h-8q-13 0 -13 10z" />
<glyph unicode="k" horiz-adv-x="1363" d="M164 1296.5q0 14.5 29 14.5q37 0 85 -1t81.5 -2t35.5 -1q4 0 76 2t102 2q29 0 29 -14.5t-14 -14.5q-23 0 -45 -4q-35 -8 -47.5 -28.5t-16.5 -67.5q-4 -55 -4 -375v-105h8q12 14 102 104l189 189l127 127q98 98 98 125q0 31 -22 35q-16 4 -16 16.5t20 12.5q18 0 65.5 -2 t69.5 -2l74 2q74 2 100.5 2t26.5 -13q0 -14 -19 -14q-41 0 -100 -24q-16 -6 -29.5 -13.5t-27 -17.5l-22.5 -16.5t-25 -21.5l-24 -23q-7 -7 -28.5 -26.5t-31.5 -29.5q-41 -37 -203 -193.5t-189 -185.5q37 -41 240 -242.5t256 -250.5q156 -139 195 -162q25 -14 63 -31 q63 -25 111 -24q23 0 22.5 -14.5t-39.5 -14.5h-92q-84 0 -125 4q-45 4 -85 20.5t-60 31.5l-74 54q-57 45 -266 262.5t-281 303.5h-8v-170q0 -305 8 -377q6 -45 18.5 -65.5t51.5 -26.5q49 -8 70 -8q14 0 14 -14.5t-29 -14.5q-39 0 -88 1t-84 3t-39 2q-2 0 -73.5 -3t-104.5 -3 q-29 0 -29 14.5t15 14.5q23 0 55 8q16 4 25.5 18t12.5 27.5t9 46.5q10 72 10 377v307q0 319 -4 375q-4 49 -17 69.5t-56 26.5q-29 4 -62 4q-14 0 -14 14.5z" />
<glyph unicode="l" horiz-adv-x="1095" d="M164 1296.5q0 14.5 29 14.5q37 0 85 -1t82.5 -2t36.5 -1t41 1t86 2t72 1q29 0 29 -15q0 -12 -15 -12q-18 0 -59 -4q-39 -8 -51.5 -28.5t-16.5 -69.5q-2 -55 -2 -375v-311q0 -205 7.5 -287t29.5 -105q41 -41 240 -41q59 0 91 2.5t68.5 14.5t57.5 37q33 39 43 98 q4 23 18 23q12 0 13 -27q0 -80 -27 -174q-10 -31 -27.5 -39t-87.5 -8q-186 0 -313 6q-164 4 -197 4q-39 0 -73 -2q-74 -4 -105 -4q-29 0 -29 14.5t15 14.5q23 0 55 8q16 4 25.5 18t12.5 27.5t9 46.5q10 72 10 377v307q0 319 -4 375q-4 49 -17 69.5t-56 26.5q-29 4 -62 4 q-14 0 -14 14.5z" />
<glyph unicode="m" horiz-adv-x="1892" d="M90 10q0 12 19 13q14 0 53 6q10 2 18 5t14.5 9t10.5 11t8 16l6 15q2 5 4 20.5t3 19.5t3 21.5t2 21.5l131 1137q4 31 21 30q23 0 37 -26l545 -1082l524 1080q14 29 29 28q20 0 26 -47l123 -1069q16 -156 92 -180q51 -16 117 -16q14 0 14 -13q0 -16 -37 -16q-199 0 -307 10 q-51 4 -51 19q0 10 12 14q11 3 11 29q0 13 -2 32l-86 881h-5l-434 -889q-29 -57 -40 -74.5t-23 -17.5q-18 0 -62 80q-141 260 -211 403l-72 149l-100 204q-43 90 -57 122h-8l-70 -786q-2 -27 -2 -88q0 -39 43 -49q39 -10 70 -10q14 0 14 -13q0 -16 -33 -16q-41 0 -104 2 l-64 4q-4 0 -63 -3t-88 -3q-31 0 -31 16z" />
<glyph unicode="n" horiz-adv-x="1705" d="M141 8.5q0 14.5 15 14.5q41 0 73 10q33 8 42.5 51t9.5 166v997q0 88 24 88q16 0 70 -53l569 -594l426 -448l-18 872q-2 88 -14.5 121t-53.5 41q-43 8 -88 8q-14 0 -14 16q0 12 35 13q49 0 117.5 -2t70.5 -2q4 0 57.5 2t96.5 2q33 0 32 -13q0 -16 -20 -16q-23 0 -43 -4 q-43 -8 -53.5 -38t-10.5 -114l-4 -1020v-68q0 -24 -2 -37t-5 -16t-7 -3q-20 0 -137 106q-117 104 -469 471q-408 426 -467 494l20 -822q2 -106 17.5 -147t52.5 -51q41 -10 90 -10q14 0 14 -14.5t-32 -14.5q-45 0 -89.5 1t-71 3t-30.5 2l-61 -4q-63 -2 -113 -2 q-29 0 -29 14.5z" />
<glyph unicode="o" horiz-adv-x="1654" d="M113 655q0 88 25.5 179.5t83 181.5t138 160.5t202.5 114.5t265 44q311 0 512 -177t201 -476t-201.5 -505t-521.5 -206q-176 0 -316.5 62.5t-222 164t-123.5 218t-42 239.5zM299 702q0 -299 161 -479t408 -180q55 0 112.5 12.5t128.5 51t123 100t88 172t36 254.5 q0 299 -157 468t-382 169q-233 0 -375.5 -146t-142.5 -422z" />
<glyph unicode="p" horiz-adv-x="1200" d="M164 1296.5q0 14.5 29 14.5q37 0 85 -1t83.5 -2t39.5 -1q14 0 111.5 2t144.5 2q231 0 344 -99q90 -82 91 -208q0 -186 -128 -301t-337 -115q-41 0 -52 2q-18 0 -18 16q0 18 47 19q145 0 239.5 80.5t94.5 199.5q0 164 -102 264q-14 14 -31 27.5t-34 22t-31.5 14.5t-31 10 t-28.5 6t-28.5 3t-23.5 1h-21h-15q-45 0 -100 -12q-14 -2 -15 -33v-708q0 -305 8 -377q6 -43 19.5 -64.5t52.5 -27.5q49 -8 80 -8q14 0 14 -14.5t-28 -14.5q-43 0 -97.5 1t-91.5 3l-37 2q-2 0 -34.5 -2t-75.5 -3t-68 -1q-29 0 -29 14.5t15 14.5q23 0 55 8q16 4 25.5 18 t12.5 27.5t9 46.5q10 72 10 377v307q0 319 -4 375q-4 49 -17 69.5t-56 26.5q-29 4 -62 4q-14 0 -14 14.5z" />
<glyph unicode="q" horiz-adv-x="1658" d="M111 655q0 88 25.5 179.5t82.5 181.5t138 160.5t203 114.5t265 44q311 0 512 -178t201 -475q0 -205 -100.5 -358.5t-216.5 -225.5l368 -182q414 -205 756 -205q166 0 352 68q18 6 27 6q10 0 10 -12.5t-14 -18.5q-274 -121 -574 -121q-322 0 -745 230l-299 162 q-106 -53 -284.5 -53.5t-319 62t-222 164t-123.5 218t-42 239.5zM295 702q0 -297 160.5 -478t408.5 -181q55 0 113.5 12.5t128.5 51t123 101t89 172t36 253.5q0 297 -158 467t-383 170q-236 0 -377 -146t-141 -422z" />
<glyph unicode="r" horiz-adv-x="1376" d="M164 1296.5q0 14.5 29 14.5q37 0 87 -1t86.5 -2t39.5 -1q4 0 98 2t127 2q227 0 336 -76q47 -33 86 -95.5t39 -142.5q0 -209 -222 -397q281 -350 377 -450q106 -109 201 -121q35 -6 63 -6q16 0 16.5 -14.5t-42.5 -14.5h-113q-129 0 -192 35q-37 20 -79 60t-73 77l-94 119 l-110 142l-85 112q-10 10 -24 10l-230 4q-12 0 -12 -14v-41q0 -303 8 -375q6 -43 19.5 -64.5t52.5 -27.5q49 -8 80 -8q14 0 14 -14.5t-29 -14.5q-43 0 -96 1t-88 3l-37 2h-12q-14 -2 -35.5 -2t-44.5 -1l-46 -2q-24 -1 -40 -1q-29 0 -29 14.5t15 14.5q23 0 55 8q16 4 25.5 18 t12.5 27.5t9 46.5q10 72 10 377v307q0 319 -4 375q-4 49 -17 69.5t-56 26.5q-29 4 -62 4q-14 0 -14 14.5zM473 659q0 -12 12 -22q49 -27 199 -27q90 0 135 31q109 72 109 266q0 162 -83 252t-229 90q-84 0 -129 -10q-14 -6 -14 -20v-560z" />
<glyph unicode="s" horiz-adv-x="1073" d="M139 84q0 41 11 184q0 29 14 29q16 0 16 -21q0 -39 6 -63q20 -88 101.5 -130t183.5 -42q129 0 199.5 64.5t70.5 166.5q0 88 -48 146.5t-179 156.5l-82 62q-141 106 -199.5 192t-58.5 181q0 152 109.5 239.5t289.5 87.5q100 0 187 -20q35 -8 63 -8q18 0 19 -13l-2 -22 q-2 -23 -4 -66t-2 -96q0 -39 -15 -39q-12 0 -16 23q-4 47 -27 86q-10 16 -29.5 32.5t-75 35t-128.5 18.5q-102 0 -171 -50.5t-69 -138.5q0 -82 49 -142t185 -153l51 -34q162 -111 228.5 -208.5t66.5 -211.5q0 -188 -168 -297q-94 -61 -287 -62q-162 0 -262 47 q-18 8 -22.5 19.5t-4.5 46.5z" />
<glyph unicode="t" horiz-adv-x="1249" d="M45 1114q0 10 19.5 98t19.5 91q12 33 18 32q4 0 28 -8t52 -12q68 -8 142 -8h680q72 0 129 8q10 2 22 4l19 3q6 1 10 1q8 0 8 -20q0 -31 -3 -112t-3 -87q0 -23 -17 -23q-12 0 -14 31l-2 18q-6 45 -51 70t-166 27l-225 4v-731q0 -305 8 -377q6 -45 18.5 -65.5t50.5 -26.5 q49 -8 82 -8q14 0 14.5 -14.5t-28.5 -14.5q-43 0 -96 1t-89 3t-38 2t-38 -2t-81 -3t-68 -1q-29 0 -28 14q0 12 14 12q20 0 53 9q43 10 54 94q8 72 8 377v731l-260 -4q-86 -2 -124 -13.5t-59 -42.5q-4 -6 -28 -55q-4 -16 -19 -16q-12 0 -12 14z" />
<glyph unicode="u" horiz-adv-x="1499" d="M72 1296.5q0 14.5 28 14.5q49 0 129 -2l78 -2q4 0 78 2t104.5 2t30.5 -14.5t-16 -14.5q-23 0 -45 -4q-33 -6 -45.5 -27.5t-16.5 -68.5q-4 -55 -4 -375v-244q0 -176 34 -272t99 -154q61 -55 123 -74.5t146 -19.5q82 0 156.5 34t121.5 89q102 123 103 422v219q0 264 -5 375 q-2 45 -16 67.5t-55 28.5q-29 4 -62 4q-14 0 -14 14.5t29 14.5q35 0 81 -1t78.5 -2t34.5 -1t61.5 2t90.5 2q29 0 28.5 -14.5t-14.5 -14.5q-23 0 -45 -4q-35 -8 -47 -28.5t-16 -67.5q-2 -27 -2 -375v-186q0 -379 -168 -523q-147 -127 -377 -127q-244 0 -375 123 q-158 147 -158 457v256q0 319 -4 375q-4 47 -18.5 68.5t-55.5 27.5q-29 4 -61 4q-14 0 -14 14.5z" />
<glyph unicode="v" horiz-adv-x="1337" d="M-47 1298q0 12 47 13q51 0 129 -2t82 -2q2 0 64.5 2t103.5 2q49 0 49 -13q0 -16 -18 -16q-43 0 -66 -8q-20 -8 -20 -31q0 -16 49 -145l340 -877q78 172 214 515t165 438q16 53 16 65q0 29 -25 37q-20 6 -61 6q-20 0 -20.5 14.5t40.5 14.5q43 0 106.5 -2t70.5 -2 q4 0 27.5 1t57 2t56.5 1q29 0 29 -13q0 -16 -21 -16q-53 0 -86 -20q-51 -33 -100 -160l-201 -471q-215 -496 -231 -529q-57 -121 -70 -129q-4 -2 -8 -2q-14 0 -27.5 20.5t-40.5 86.5l-442 1067q-29 72 -53.5 96.5t-71.5 34.5q-29 6 -70 6q-14 0 -14 16z" />
<glyph unicode="w" horiz-adv-x="1982" d="M-20 1298q0 12 28 13q41 0 90 -1t83 -2t40 -1q4 0 34 1t73 2t82 1q33 0 32 -13q0 -16 -18 -16q-43 0 -64 -10q-25 -8 -24.5 -37t35.5 -162q20 -78 118.5 -420l116.5 -401h4l377 973q31 80 49.5 80t48.5 -82l353 -971h8q240 762 270 870q20 74 21 109q0 27 -19.5 39 t-77.5 12q-16 0 -16 16q0 12 31 13q41 0 83 -1t69.5 -2t31.5 -1l57 2q55 2 89 2q25 0 24 -11q0 -18 -16 -18q-35 0 -62 -8q-37 -12 -61.5 -55t-54.5 -129q-39 -106 -166 -487.5t-164 -481.5q-35 -98 -49.5 -124t-28.5 -26q-27 0 -59 90l-353 953l-370 -951 q-23 -55 -36.5 -73.5t-27.5 -18.5t-28.5 27t-40.5 111l-320 1032q-20 68 -38.5 93.5t-55.5 37.5q-31 10 -82 10q-16 0 -16 16z" />
<glyph unicode="x" horiz-adv-x="1251" d="M-8 6q0 16 14 17q23 0 68 10q72 18 147 135l324 500l-287 467q-37 59 -65.5 90.5t-71.5 44t-76 12.5q-16 0 -16 16q0 12 30.5 12.5t119.5 -1.5t91 -2t71 2t105 2q31 0 31 -13q0 -16 -16 -16q-35 0 -49 -4q-23 -2 -23 -26.5t19 -57.5q156 -281 237 -412q45 63 146.5 221 t113.5 185q18 31 19 61q0 18 -31 29q-18 4 -49 4q-16 0 -17 16q0 12 31 13q41 0 99.5 -2t60.5 -2t58.5 2t92.5 2q29 0 29 -13q0 -16 -18 -16q-35 0 -62 -8q-35 -12 -62.5 -42t-72.5 -95l-289 -422l101 -163l177 -285q87 -138 103 -158q47 -61 103 -76q41 -10 61 -10 q14 0 14 -14.5t-24 -14.5q-197 0 -295 4q-55 2 -55 14q0 10 10 15q10 2 15 14t-5 35l-305 514l-277 -457q-23 -39 -22 -78q0 -23 29 -28q20 -4 32 -4q16 0 17 -17q0 -12 -23 -12q-25 0 -99.5 3t-78.5 3q-2 0 -65.5 -3t-98.5 -3q-16 0 -16 12z" />
<glyph unicode="y" horiz-adv-x="1179" d="M-49 1298q0 12 22 13q20 0 101 -2l78 -2q4 0 28.5 1t60 2t66.5 1q25 0 25 -13q0 -8 -29 -18q-23 -10 -22 -29q0 -23 24 -67l328 -543q16 33 82 144l134 227q69 115 79 133q31 53 30.5 90t-28.5 45q-27 6 -27 20q0 10 29 11q27 0 74 -2t51 -2t79.5 2t96.5 2q23 0 22 -11 q0 -18 -22 -18q-45 0 -84 -22q-37 -23 -90 -86q-41 -49 -180.5 -270.5t-169.5 -282.5q-10 -23 -16.5 -48.5t-7.5 -38t0 -48t1 -40.5v-149q0 -102 6 -174q4 -43 18.5 -64.5t51.5 -27.5q49 -8 82 -8q14 0 14 -14.5t-29 -14.5q-45 0 -98 1t-90 3t-39 2t-36 -2t-75.5 -3 t-64.5 -1q-29 0 -29 14.5t15 14.5q20 0 53 8q47 10 53 92q4 72 4 174v149q0 106 -39 179l-143 230q-131 210 -176 275q-53 82 -119 127q-41 25 -76 25q-18 0 -18 16z" />
<glyph unicode="z" horiz-adv-x="1247" d="M139 14q0 18 25 54l784 1165h-381q-203 0 -256 -29q-43 -23 -69.5 -62.5t-32.5 -74.5q-4 -31 -25 -31q-10 0 -10 23q0 39 37 231q2 33 16 33q6 0 27.5 -5t48.5 -7q115 -4 315 -4h504q37 0 37 -15q0 -18 -10 -30l-797 -1186h479q133 0 189.5 19.5t91.5 60.5q18 23 37 94 q6 27 20.5 26.5t14.5 -38.5q0 -72 -37 -201q-8 -33 -15.5 -39t-37.5 -6q-150 0 -456 4t-466 4q-33 0 -33 14z" />
<glyph unicode="{" horiz-adv-x="737" d="M115 702q0 16 24 19q86 4 114 27.5t28 111.5q0 41 -10.5 120t-10.5 99q0 143 33 221t98 140q43 39 99.5 61.5t93.5 22.5q27 0 26 -11q0 -8 -32 -18q-55 -16 -109.5 -78.5t-54.5 -177.5v-98v-89q0 -26 -1 -66t-5.5 -65.5t-10.5 -50.5q-12 -51 -50 -97t-73 -58 q86 -45 119 -162q20 -76 21 -307q0 -399 153 -463q45 -16 45 -26.5t-37 -10.5q-39 0 -99 34t-111 103q-49 68 -77 169.5t-28 297.5q0 31 7 108t7 111q0 43 -14 65.5t-39.5 32t-81.5 19.5q-24 4 -24 16z" />
<glyph unicode="|" horiz-adv-x="1044" d="M467 -512v2048h111v-2048h-111z" />
<glyph unicode="}" horiz-adv-x="737" d="M125 -246q0 12 45 29q154 53 154 463v58v53v43q0 28 2 42.5t4 36t5 39t9 35.5q33 117 119 162q-35 12 -73 58t-50 97q-6 25 -10 50.5t-5 65.5t-1 66v89v98q0 115 -54.5 177.5t-109.5 78.5q-33 10 -33 16q0 12 27 13q37 0 93 -22.5t99 -61.5q66 -61 98.5 -139t32.5 -222 q0 -23 -10 -103.5t-10 -141t22 -80.5q14 -12 32.5 -20.5t28 -9.5t33.5 -3h25q25 -2 25 -19q0 -12 -25 -16q-39 -6 -54.5 -10t-36 -14.5t-30.5 -26.5q-14 -25 -14 -73t7 -115.5t7 -96.5q0 -197 -27.5 -298t-76.5 -169q-51 -70 -111.5 -103.5t-99.5 -33.5q-37 0 -37 8z" />
<glyph unicode="~" horiz-adv-x="1044" d="M125 410q-2 121 51 182t143 61q76 0 224 -69q143 -68 190 -68q41 -2 61.5 33t22.5 102h101q6 -129 -47.5 -186t-141.5 -57q-84 0 -225 69q-139 70 -189 70q-88 0 -90 -135z" />
<glyph unicode="&#xa1;" horiz-adv-x="655" d="M221 -219q0 4 5 40l13.5 100.5t12.5 129.5q0 6 11 228l23 435q11 214 13 236q4 66 25 66q25 0 30 -107l33 -544q0 -2 3 -63.5t7 -119t9.5 -120t11.5 -85.5q8 -33 8 -38q0 -12 -10 -29q-53 -90 -152 -139q-20 -10 -31 -11q-12 1 -12 21zM225 1255q0 47 30 79t77 32 q49 0 75.5 -31.5t26.5 -72.5q0 -39 -26.5 -72t-77.5 -33q-45 0 -75 27.5t-30 70.5z" />
<glyph unicode="&#xa2;" d="M125 780q0 131 50 230.5t110 150.5q147 127 397 137l23 205q2 14 20 19l41 8q10 2 16 -1t4 -11l-26 -222q145 0 282 -51q14 -8 15 -28q0 -102 -13 -189q-2 -25 -16 -24q-10 0 -10 24q-8 74 -41 115q-23 27 -85.5 51.5t-146.5 28.5l-92 -889q70 -4 101 -4q119 0 182 32.5 t84 124.5q6 31 18.5 31t12.5 -24q0 -61 -27 -189q-8 -31 -27 -35q-123 -33 -272 -32q-57 0 -88 2l-29 -277q-2 -18 -18 -22l-47 -11q-23 -6 -19 13l37 311q-193 35 -314.5 173t-121.5 353zM276 836q0 -199 87.5 -317t211.5 -163l93 869q-178 0 -285 -110.5t-107 -278.5z" />
<glyph unicode="&#xa3;" d="M-23 20q0 27 41 35q74 16 125.5 56.5t80 107t44 132t27.5 165.5l27 215h-154q-14 0 -27.5 -2t-15.5 -2q-14 0 -6 18l24 43q6 16 29 17h162l20 143q51 367 213 508q131 115 310 115q104 0 178 -25q47 -10 55 -10q14 -2 14 -25q0 -172 -10 -233q-4 -25 -16 -25 q-16 0 -17 31q0 72 -49 137q-57 78 -203 78q-121 0 -201.5 -100.5t-101.5 -284.5l-37 -309h224q25 0 46 3l35 5q13 2 15 2q18 0 10 -20l-22 -50q-8 -16 -33 -16h-287l-10 -86q-47 -369 -227 -524l4 -4l639 6q86 2 131 40t59 128q2 20 16.5 20t14.5 -30q0 -74 -35 -248 q-6 -29 -23.5 -35t-101.5 -6q-104 0 -207 6q-135 4 -223 4h-477q-60 0 -60 20z" />
<glyph unicode="&#xa4;" d="M172 920l84 88l123 -136q82 72 203 72h2q121 0 200 -70l127 134l86 -88l-139 -125q57 -88 57 -205q-2 -137 -59 -219l133 -127l-86 -88l-123 139q-82 -76 -200 -76q-123 -4 -201 72l-121 -135l-82 88l129 125q-66 88 -65.5 208.5t67.5 217.5zM379 582q0 -115 61.5 -176.5 t137.5 -61.5q82 0 141 60.5t59 181.5q0 96 -53 164.5t-145 68.5h-2q-88 0 -143.5 -67.5t-55.5 -169.5z" />
<glyph unicode="&#xa5;" d="M-106 1526q0 16 20 16q23 0 107.5 -3t87.5 -3q4 0 28.5 2t62.5 3t72 1q27 0 27 -16q0 -10 -28.5 -18.5t-28.5 -37t26 -77.5q344 -604 348 -609q23 37 157 285l153 281q39 66 39 108q0 33 -33 47q-33 12 -33 23q0 14 33 14q31 0 78 -3t49 -3t86 3t104 3q27 0 27 -14 q0 -16 -25 -17q-43 0 -88 -24q-47 -23 -106 -105q-29 -37 -109 -176l-170 -300q-90 -161 -114 -201h331q27 0 19 -19l-13 -47q-4 -12 -28 -12h-311v-289v-201q2 -49 22.5 -73.5t71.5 -32.5q43 -6 92 -6q18 0 18 -17q0 -14 -32 -14q-31 0 -67 1t-65.5 2t-55 1t-41 1t-17.5 1 t-41 -2t-98.5 -3t-106.5 -1q-35 0 -35 14q0 16 15 17q55 0 94 6q51 8 72.5 32.5t23.5 73.5q2 45 2 201v289h-332q-20 0 -14 22l14 43q4 12 23 13h305q-35 51 -176 288l-201 340q-63 106 -127 152q-41 27 -90 26q-22 1 -22 15z" />
<glyph unicode="&#xa6;" horiz-adv-x="1044" d="M467 -358v716h111v-716h-111zM467 666v716h111v-716h-111z" />
<glyph unicode="&#xa7;" horiz-adv-x="1220" d="M174 664q0 109 70.5 190.5t165.5 120.5q-139 135 -140 262q0 160 122 246t294 86q109 0 195 -21q35 -8 63 -8q18 0 19 -12l-2 -23q-2 -23 -4.5 -65.5t-2.5 -96.5q0 -39 -14 -38q-12 0 -16 22q-4 47 -27 86q-51 86 -244 86q-106 0 -180 -55t-74 -160q0 -59 39 -114.5 t78 -85t146 -103.5l22 -16l53 -37q166 -115 236.5 -201t70.5 -195q0 -223 -208 -342q106 -109 106 -253q0 -190 -170 -304q-109 -72 -272 -71q-195 0 -295 47q-18 8 -22.5 19.5t-4.5 45.5q0 41 10 185q0 29 15 28q16 0 16 -20q0 -39 6 -64q39 -172 295 -172q125 0 203 68 t78 180q0 100 -60.5 169t-208.5 175l-65 47q-164 119 -228.5 198t-64.5 196zM289 709q0 -84 55 -142.5t209 -160.5l57 -39q129 -86 174 -129q63 35 102.5 102.5t39.5 128.5q0 59 -31 108.5t-73 84t-124 92.5q-27 16 -39 26l-86 62q-43 31 -108 84q-72 -23 -124 -85t-52 -132 z" />
<glyph unicode="&#xa8;" horiz-adv-x="1865" d="M639 1788q0 33 22.5 60.5t65.5 27.5q39 0 63.5 -22.5t24.5 -59.5q0 -41 -24.5 -67.5t-65.5 -26.5q-43 0 -64.5 26.5t-21.5 61.5zM1051 1788q0 33 22.5 60.5t65.5 27.5q39 0 63.5 -22.5t24.5 -59.5q0 -41 -24.5 -67.5t-65.5 -26.5q-43 0 -64.5 26.5t-21.5 61.5z" />
<glyph unicode="&#xa9;" horiz-adv-x="1855" d="M127 766q0 334 234.5 569.5t568.5 235.5q330 0 564.5 -235.5t234.5 -569.5q0 -332 -233.5 -566.5t-565.5 -234.5q-334 0 -568.5 233.5t-234.5 567.5zM244 768q0 -295 197.5 -505t488.5 -208q291 0 486.5 209t195.5 504q0 297 -195.5 505t-486.5 208q-293 0 -489.5 -208 t-196.5 -505zM461 786q0 199 139 332q127 123 350 123q72 0 168 -16q14 -2 44 -8l53 -12q24 -5 26 -5q4 0 12.5 1t10.5 1q4 0 4 -10q0 -125 -13 -199q-2 -16 -20 -16t-18 22q-4 66 -33 97q-63 72 -252 71q-154 0 -236 -86t-82 -247q0 -207 111 -325t266 -118q131 0 183 51 q31 29 47 97q6 20 22 20q18 0 19 -18q0 -55 -21 -146q-8 -37 -15 -47t-30 -16q-90 -25 -219 -25q-229 0 -372.5 131t-143.5 348z" />
<glyph unicode="&#xaa;" horiz-adv-x="819" d="M-20 846q0 8 10 8q23 0 33 2q59 4 92 86l260 604q10 25 26 25q12 0 29 -35q2 -4 55 -125l115 -254q61 -133 94 -196q51 -92 88 -103q16 -4 45 -4q10 0 11 -8q0 -10 -23 -10q-98 0 -201 4q-35 0 -34.5 6t8.5 10q14 4 8 21l-82 184q-6 8 -12 8h-246q-6 0 -10 -10l-45 -123 q-12 -37 -13 -53q0 -12 9.5 -20.5t19.5 -8.5h10q12 0 13 -8q0 -10 -19 -10q-14 0 -49 2t-43 2q-6 0 -52 -2t-77 -2q-20 0 -20 10zM276 1139q-4 -8 5 -9h192q10 0 6 9l-94 229q-10 25 -20 0z" />
<glyph unicode="&#xab;" horiz-adv-x="1146" d="M154 614.5q0 12.5 39 44.5q57 49 364 357q27 23 37 22q18 0 18 -16q0 -14 -12 -27q-2 -2 -30 -34l-66 -78l-81 -95l-79 -95q-37 -46 -53 -68q29 -35 126 -134.5t165 -158.5q29 -27 28 -31q0 -6 -8 -14l-61 -68q-6 -10 -17 -10q-8 0 -47 45q-188 213 -287 311 q-36 37 -36 49.5zM537 614.5q0 12.5 38 44.5q57 49 365 357q27 23 37 22q18 0 18 -16q0 -14 -12 -27q-2 -2 -30 -34l-66 -78l-81 -95l-79 -95q-37 -46 -53 -68q29 -35 126 -134.5t165 -158.5q29 -27 28 -31q0 -6 -8 -14l-61 -68q-6 -10 -17 -10q-8 0 -47 45 q-188 213 -287 311q-36 37 -36 49.5z" />
<glyph unicode="&#xac;" horiz-adv-x="1044" d="M92 655v105h860v-434h-106v329h-754z" />
<glyph unicode="&#xad;" horiz-adv-x="798" d="M74 504l30 114q4 16 46 17h516q61 0 61 -21q0 -4 -1 -7t-4 -6t-6 -5t-8.5 -4t-9.5 -3t-10 -3t-10 -2t-11.5 -2t-11.5 -2q-457 -68 -487 -76q-16 -4 -36 -12l-32 -14q-12 -5 -16 -5q-16 0 -10 31z" />
<glyph unicode="&#xae;" horiz-adv-x="421" d="M23 1391q0 78 53 129t135 51t135 -51.5t53 -128.5q0 -76 -53 -127.5t-135 -51.5t-135 51.5t-53 127.5zM57 1392.5q0 -65.5 44 -107.5t112 -42q66 0 109 43t43 107q0 66 -43 106.5t-111 40.5t-111 -41t-43 -106.5zM111 1300q0 6 8 7q18 0 20 12q0 2 1 20.5t1 36.5v45 q0 18 -1 36t-1 20q0 14 -22 14q-6 0 -6 4q0 6 10 6h10q2 0 12.5 -1t14.5 -1q10 0 22.5 1t20.5 1q86 0 86 -55q0 -33 -37 -62l35 -43q29 -35 39 -34q6 0 6 -4q0 -6 -15 -7q-18 0 -24 1t-19.5 9.5t-27.5 28.5l-29 39h-37v-18q0 -41 4 -45q8 -4 21 -4q6 0 6 -4q0 -6 -8 -7h-8 q-2 0 -14.5 1t-18.5 1q-4 0 -16.5 -1t-14.5 -1h-10q-8 0 -8 4zM178 1397q10 -6 31 -6q12 0 20 6q18 10 19 37q0 49 -51 49q-14 0 -19 -4v-82z" />
<glyph unicode="&#xaf;" horiz-adv-x="1865" d="M664 1780l16 51q2 12 22 12h482q25 0 16 -20l-16 -45q-4 -12 -19 -13h-481q-12 0 -17 3.5t-3 11.5z" />
<glyph unicode="&#xb0;" horiz-adv-x="630" d="M86 1210q0 90 62.5 152.5t152.5 62.5h4q96 0 154.5 -60t58.5 -146l-2 2q0 -94 -64.5 -155.5t-152.5 -61.5q-92 0 -152.5 60t-60.5 146zM176 1214q0 -53 36 -90t87 -37t87 38t36 94q0 51 -32 90t-93 39q-55 0 -88 -41.5t-33 -92.5z" />
<glyph unicode="&#xb1;" horiz-adv-x="1044" d="M86 0v102h872v-102h-872zM86 586v104h385v383h104v-383h383v-104h-380v-387h-107v387h-385z" />
<glyph unicode="&#xb2;" horiz-adv-x="909" d="M106 641q0 8 25 33q113 90 167 137t138 135t122 171t38 169q0 121 -61.5 176.5t-137.5 55.5q-90 0 -143 -56q-45 -49 -45 -112q0 -23 -16 -23q-8 0 -13 23q-8 41 -8 141q0 20 14 29q106 51 236 51q145 0 227 -72t82 -172q0 -86 -39 -172t-116.5 -169t-140 -138 t-159.5 -131v-2q0 -6 7 -6h67q145 0 236 8q74 6 106.5 29.5t48.5 74.5q8 20 18.5 20.5t10.5 -18t-15.5 -77t-31.5 -87.5q-18 -35 -76 -34h-518q-23 0 -23 16z" />
<glyph unicode="&#xb3;" horiz-adv-x="845" d="M121 698q0 92 6 131q2 18 12.5 18.5t12.5 -16.5q16 -154 210 -153q96 0 159 59.5t63 163.5q0 94 -74 149.5t-168 65.5q-41 6 -41 19q0 16 37 22q61 8 133 65.5t72 143.5q0 49 -42 100.5t-136 51.5q-72 0 -125.5 -39t-53.5 -95q0 -27 -10 -26q-12 0 -14 22q-12 74 -12 121 q0 23 18 31q90 39 231 39q145 0 207 -56.5t62 -117.5q0 -80 -63.5 -138.5t-127.5 -84.5v-5q80 -12 162 -73.5t82 -161.5q0 -129 -116 -223.5t-281 -94.5q-133 0 -181 27q-16 8 -19 17t-3 38z" />
<glyph unicode="&#xb4;" horiz-adv-x="1865" d="M823 1712q0 8 15 17q121 84 278 174q45 27 58 26q8 0 20 -18q8 -10 51 -90q14 -25 -8 -25h-61q-143 -14 -312 -86q-25 -10 -30 -10q-11 0 -11 12z" />
<glyph unicode="&#xb5;" horiz-adv-x="1179" d="M119 -502q25 510 24 809v615h154v-461q0 -358 276 -359q266 0 267 308v512h153v-736q0 -115 66 -114q43 0 69 67l31 -14q-12 -72 -53 -114t-102 -42q-70 0 -109 50.5t-45 185.5q-109 -236 -338 -236q-166 0 -236 113q18 -326 52 -492l-185 -102z" />
<glyph unicode="&#x3bc;" horiz-adv-x="1179" d="M119 -502q25 510 24 809v615h154v-461q0 -358 276 -359q266 0 267 308v512h153v-736q0 -115 66 -114q43 0 69 67l31 -14q-12 -72 -53 -114t-102 -42q-70 0 -109 50.5t-45 185.5q-109 -236 -338 -236q-166 0 -236 113q18 -326 52 -492l-185 -102z" />
<glyph unicode="&#xb6;" horiz-adv-x="1458" d="M109 1063q0 195 139 326q162 154 469 153q18 0 106 -3t111 -3q2 0 138 3t192 3q33 0 32 -16q0 -12 -16 -13q-33 0 -57 -6q-39 -10 -54.5 -36.5t-19.5 -79.5q-4 -66 -4 -443v-805q0 -352 4 -409q0 -14 -14 -29q-47 -43 -99 -43q-12 0 -12 10q0 2 4 28t6 50q10 113 10 393 v1258q0 80 -79 80q-70 0 -76 -76q-2 -41 -2 -457v-796q0 -430 6 -496q2 -12 -12 -27q-47 -43 -103 -43q-16 0 -16 13l2 8q2 8 5 26.5t5 42.5q12 127 12 476v1247q0 82 -34 82q-53 0 -116 -35t-97 -90q-72 -111 -72 -293q0 -293 154 -393q10 -6 23 -12.5t19.5 -8.5t11.5 -6 t5 -12q0 -14 -23 -15q-10 -2 -43 -2q-221 0 -363 123t-142 326z" />
<glyph unicode="&#xb7;" horiz-adv-x="512" d="M143 588q0 41 29 76.5t84 35.5q49 0 81 -28.5t32 -77.5q0 -51 -32 -85t-83 -34q-53 0 -82 35t-29 78z" />
<glyph unicode="&#xb8;" horiz-adv-x="1865" d="M768 -473q0 18 41 22q59 6 105.5 40t46.5 85q0 106 -148 150q-31 8 -31 18q0 8 27 29l158 129h82q-14 -8 -76 -65.5t-78 -73.5q205 -20 205 -146q0 -55 -43 -99t-103 -69q-82 -37 -159 -36q-27 0 -27 16z" />
<glyph unicode="&#xb9;" horiz-adv-x="675" d="M61 1352q0 8 7 14q4 4 148 93t151 93q23 18 36 19q12 0 13 -27q0 -2 -1 -18.5t-1 -44t-1 -64.5t-2 -90t-1 -108v-226q0 -215 6 -268q4 -29 15 -44t44 -22q41 -10 94 -10q18 0 19 -12q0 -16 -25 -16q-49 0 -100 1t-82 1l-33 2l-39 -2q-39 0 -95 -1t-101 -1q-25 0 -25 14 t16 14q70 0 117 10q35 6 46.5 21.5t15.5 44.5q6 53 6 268v226q0 135 -2 155q-2 12 -3 17.5t-6.5 10.5t-15.5 5q-29 0 -170 -61q-12 -6 -18 -7q-13 1 -13 13z" />
<glyph unicode="&#xba;" horiz-adv-x="894" d="M41 1200q0 141 107.5 256t300.5 115q180 0 293.5 -95.5t113.5 -259t-114.5 -275.5t-299.5 -112q-197 0 -299 108.5t-102 262.5zM186 1223q0 -143 84 -240.5t201 -97.5q35 0 69.5 12t76.5 42t68 94.5t26 156.5q0 150 -85 239t-196 89q-96 0 -170 -77t-74 -218z" />
<glyph unicode="&#xbb;" horiz-adv-x="1146" d="M152 225q0 14 12 27q2 2 30 35l66 78l81 94l79 95q37 46 53 69q-29 35 -126 134t-165 158q-29 27 -28 31q0 6 8 15l61 67q6 10 17 10q8 0 47 -45q188 -213 286 -311q37 -37 37 -49t-39 -45q-57 -49 -364 -357q-27 -23 -37 -22q-18 0 -18 16zM535 225q0 14 12 27 q2 2 30 35l66 78l81 94l79 95q37 46 53 69q-29 35 -126 134t-165 158q-29 27 -28 31q0 6 8 15l61 67q6 10 17 10q8 0 47 -45q188 -213 286 -311q37 -37 37 -49t-39 -45q-57 -49 -364 -357q-27 -23 -37 -22q-18 0 -18 16z" />
<glyph unicode="&#xbc;" horiz-adv-x="1624" d="M57 1284q0 8 6 14q4 4 141.5 88t143.5 89q23 18 35 18t12 -27q0 -2 -1 -17t-1 -42t-1 -61.5t-2 -85t-1 -103.5v-213q0 -205 6 -256q2 -18 6.5 -28.5t15.5 -19.5t34 -13q37 -10 90 -11q18 0 18 -12q0 -14 -24 -14q-47 0 -95.5 1t-79.5 3h-30h-37q-37 -2 -90 -3t-97 -1 q-23 0 -22 12q0 14 14 14q68 0 113 11q33 6 43 19t14 42q6 51 6 256v213q0 129 -2 148q-4 33 -22 32q-35 0 -162 -59q-12 -6 -18 -6q-13 0 -13 12zM289 6q-12 6 2 27l1106 1444q16 18 26 10l37 -29q12 -8 4 -20l-1110 -1461q-10 -16 -24 -6zM788 270q0 14 19 33 q8 8 240.5 274.5t259.5 301.5q18 23 32 22q12 0 13 -20v-553h100q14 0 27.5 3t20.5 6t9 3q12 0 13 -12q0 -16 -13 -58q-6 -16 -24 -16h-133q0 -135 2 -162q6 -59 55 -63q37 -4 55 -4q12 0 13 -13q0 -14 -19 -14q-31 0 -71.5 1t-71.5 2t-33 1t-26.5 -1t-60.5 -2t-67 -1 q-16 0 -16 12q0 14 16 15q20 0 58 4q51 4 55 63q2 53 2 162h-428q-27 0 -27 16zM905 328h338v389h-2q-14 -14 -169 -195.5t-167 -193.5z" />
<glyph unicode="&#xbd;" horiz-adv-x="1742" d="M57 1284q0 8 6 14q4 4 141.5 88t143.5 89q23 18 35 18t12 -27q0 -2 -1 -17t-1 -42t-1 -61.5t-2 -85t-1 -103.5v-213q0 -205 6 -256q2 -18 6.5 -28.5t15.5 -19.5t34 -13q37 -10 90 -11q18 0 18 -12q0 -14 -24 -14q-47 0 -95.5 1t-79.5 3h-30h-37q-37 -2 -90 -3t-97 -1 q-23 0 -22 12q0 14 14 14q68 0 113 11q33 6 43 19t14 42q6 51 6 256v213q0 129 -2 148q-4 33 -22 32q-35 0 -162 -59q-12 -6 -18 -6q-13 0 -13 12zM221 6q-10 6 4 27l1106 1444q16 18 27 10l37 -29q12 -8 4 -20l-1110 -1461q-12 -18 -27 -6zM1008 16q0 8 22 31l105 85l96 84 q66 58 97.5 97t71.5 95.5t56.5 110.5t16.5 110q0 115 -58.5 167t-130.5 52q-88 0 -137 -51q-41 -45 -41 -109q0 -20 -16 -20q-8 0 -13 20q-8 41 -8 135q0 20 14 27q106 49 224 49q139 0 217 -67.5t78 -163.5q0 -66 -29 -135.5t-68 -124t-103.5 -119t-112.5 -104.5l-120 -97 v-2q0 -6 7 -6h63q141 0 223 8q70 6 102.5 28.5t47.5 69.5q8 20 16 21q10 0 10 -19q0 -16 -15 -72.5t-30 -82.5q-18 -33 -71 -33h-492q-22 0 -22 16z" />
<glyph unicode="&#xbe;" horiz-adv-x="1652" d="M115 664q0 88 6 124q2 16 12 17q8 0 10 -14q16 -147 201 -148q90 0 150.5 56.5t60.5 156.5q0 90 -70.5 142.5t-158.5 62.5q-39 6 -39 16q0 16 35 23q59 8 126.5 62.5t67.5 135.5q0 45 -41 94.5t-129 49.5q-68 0 -119 -37t-51 -90q0 -25 -8 -25q-12 0 -14 21 q-12 70 -13 114q0 23 19 31q82 37 219 37q139 0 197.5 -53.5t58.5 -112.5q0 -76 -61.5 -133t-120.5 -80v-4q76 -12 153.5 -70.5t77.5 -152.5q0 -123 -109.5 -212t-267.5 -89q-131 0 -172 24q-14 8 -17 16.5t-3 37.5zM285 6q-10 6 4 27l1104 1444q16 18 26 10l39 -29 q10 -8 2 -20l-1110 -1461q-10 -16 -24 -6zM815 270q0 12 21 33q8 8 240.5 274.5t258.5 301.5q18 23 31 22q14 0 14 -20v-553h99q14 0 27.5 3t20.5 6t9 3q12 0 12 -12q0 -16 -12 -58q-6 -16 -25 -16h-131v-162q6 -59 56 -63q37 -4 57 -4q10 0 10 -13q0 -14 -18 -14 q-31 0 -72 1t-71.5 2t-32.5 1t-27 -1t-60.5 -2t-66.5 -1q-14 0 -14 12q0 14 14 15q20 0 57 4q51 4 56 63q2 53 2 162h-428q-27 0 -27 16zM932 328h338v389h-2q-14 -14 -169 -195.5t-167 -193.5z" />
<glyph unicode="&#xbf;" horiz-adv-x="999" d="M123 80q0 70 15.5 127t53 114.5t72.5 99.5l102 118q67 76 109 129q84 106 84 163q0 51 -39 105q-18 25 -18 35q0 6 8 12t14 6q29 0 86 -71q59 -74 60 -121q0 -45 -45 -103q-25 -33 -73 -88t-69 -82q-104 -133 -142 -227t-38 -207q0 -94 57.5 -177t182.5 -83q137 0 200 80 q61 74 72 190q4 35 16 35q14 0 17 -20q8 -35 8 -240q0 -18 -22 -33q-137 -82 -340 -82q-186 0 -278.5 97.5t-92.5 222.5zM432 1255q0 47 30 79t77 32q49 0 75.5 -31.5t26.5 -72.5q0 -39 -26.5 -72t-77.5 -33q-45 0 -75 27.5t-30 70.5z" />
<glyph unicode="&#xc0;" horiz-adv-x="1433" d="M-55 10q0 12 18 13q27 0 60 4q66 8 102.5 56t69.5 136l464 1272q29 80 45.5 80t45.5 -74l477 -1235q82 -201 176 -227q37 -12 82 -12q20 0 20 -13q0 -16 -41 -16q-180 0 -321 4q-61 4 -61.5 14.5t14.5 14.5q29 10 12 55l-190 504q-6 12 -19 12h-440q-14 0 -21 -16 l-123 -363q-29 -80 -28 -137q0 -29 23.5 -44t54.5 -15h20q20 0 21 -13q0 -16 -31 -16q-29 0 -90.5 3t-69.5 3q-2 0 -88 -3t-143 -3q-39 0 -39 16zM391 1855q0 10 23 17q94 27 123 39q27 10 32 10q4 0 8.5 -4t9.5 -12.5t13 -16.5q61 -61 201 -149q39 -27 39 -29 q0 -10 -19 -10q-49 0 -370 121q-60 22 -60 34zM475 686q-6 -14 6 -14h391q12 0 9 14l-195 553q-14 47 -31 0z" />
<glyph unicode="&#xc1;" horiz-adv-x="1433" d="M-55 10q0 12 18 13q27 0 60 4q66 8 102.5 56t69.5 136l464 1272q29 80 45.5 80t45.5 -74l477 -1235q82 -201 176 -227q37 -12 82 -12q20 0 20 -13q0 -16 -41 -16q-180 0 -321 4q-61 4 -61.5 14.5t14.5 14.5q29 10 12 55l-190 504q-6 12 -19 12h-440q-14 0 -21 -16 l-123 -363q-29 -80 -28 -137q0 -29 23.5 -44t54.5 -15h20q20 0 21 -13q0 -16 -31 -16q-29 0 -90.5 3t-69.5 3q-2 0 -88 -3t-143 -3q-39 0 -39 16zM475 686q-6 -14 6 -14h391q12 0 9 14l-195 553q-14 47 -31 0zM608 1712q0 8 15 17q121 84 278 174q45 27 57 26q8 0 21 -18 q8 -10 51 -90q14 -25 -8 -25h-61q-143 -14 -312 -86q-25 -10 -31 -10q-10 0 -10 12z" />
<glyph unicode="&#xc2;" horiz-adv-x="1433" d="M-55 10q0 12 18 13q27 0 60 4q66 8 102.5 56t69.5 136l464 1272q29 80 45.5 80t45.5 -74l477 -1235q82 -201 176 -227q37 -12 82 -12q20 0 20 -13q0 -16 -41 -16q-180 0 -321 4q-61 4 -61.5 14.5t14.5 14.5q29 10 12 55l-190 504q-6 12 -19 12h-440q-14 0 -21 -16 l-123 -363q-29 -80 -28 -137q0 -29 23.5 -44t54.5 -15h20q20 0 21 -13q0 -16 -31 -16q-29 0 -90.5 3t-69.5 3q-2 0 -88 -3t-143 -3q-39 0 -39 16zM449 1690q0 6 12 22q49 49 229 213q23 20 33 21q6 0 33 -21l207 -156q25 -16 24.5 -20t-10.5 -18l-43 -45q-12 -12 -19 -13 q-8 0 -16 10q-29 31 -89 80t-83 62q-16 8 -20 8q-12 0 -33 -10q-51 -27 -174 -129q-23 -20 -37 -20t-14 16zM475 686q-6 -14 6 -14h391q12 0 9 14l-195 553q-14 47 -31 0z" />
<glyph unicode="&#xc3;" horiz-adv-x="1433" d="M-55 10q0 12 18 13q27 0 60 4q66 8 102.5 56t69.5 136l464 1272q29 80 45.5 80t45.5 -74l477 -1235q82 -201 176 -227q37 -12 82 -12q20 0 20 -13q0 -16 -41 -16q-180 0 -321 4q-61 4 -61.5 14.5t14.5 14.5q29 10 12 55l-190 504q-6 12 -19 12h-440q-14 0 -21 -16 l-123 -363q-29 -80 -28 -137q0 -29 23.5 -44t54.5 -15h20q20 0 21 -13q0 -16 -31 -16q-29 0 -90.5 3t-69.5 3q-2 0 -88 -3t-143 -3q-39 0 -39 16zM395 1720q0 8 15 31q31 47 82 96t94 49q41 0 172 -63q70 -35 119 -35q80 0 124 60q14 23 25 22q14 0 14 -12q0 -10 -8 -27 q-18 -35 -73.5 -88t-96.5 -53q-55 0 -162 53l-27 14q-19 10 -32.5 16.5t-35 11.5t-44.5 5q-61 0 -125 -74q-14 -18 -28 -18q-13 0 -13 12zM475 686q-6 -14 6 -14h391q12 0 9 14l-195 553q-14 47 -31 0z" />
<glyph unicode="&#xc4;" horiz-adv-x="1433" d="M-55 10q0 12 18 13q27 0 60 4q66 8 102.5 56t69.5 136l464 1272q29 80 45.5 80t45.5 -74l477 -1235q82 -201 176 -227q37 -12 82 -12q20 0 20 -13q0 -16 -41 -16q-180 0 -321 4q-61 4 -61.5 14.5t14.5 14.5q29 10 12 55l-190 504q-6 12 -19 12h-440q-14 0 -21 -16 l-123 -363q-29 -80 -28 -137q0 -29 23.5 -44t54.5 -15h20q20 0 21 -13q0 -16 -31 -16q-29 0 -90.5 3t-69.5 3q-2 0 -88 -3t-143 -3q-39 0 -39 16zM424 1788q0 33 22.5 60.5t65.5 27.5q39 0 63.5 -22.5t24.5 -59.5q0 -41 -24.5 -67.5t-65.5 -26.5q-43 0 -64.5 26.5 t-21.5 61.5zM475 686q-6 -14 6 -14h391q12 0 9 14l-195 553q-14 47 -31 0zM836 1788q0 33 22.5 60.5t65.5 27.5q39 0 63.5 -22.5t24.5 -59.5q0 -41 -24.5 -67.5t-65.5 -26.5q-43 0 -64.5 26.5t-21.5 61.5z" />
<glyph unicode="&#xc5;" horiz-adv-x="1433" d="M-55 10q0 12 18 13q27 0 60 4q66 8 102.5 56t69.5 136l464 1272q29 80 45.5 80t45.5 -74l477 -1235q82 -201 176 -227q37 -12 82 -12q20 0 20 -13q0 -16 -41 -16q-180 0 -321 4q-61 4 -61.5 14.5t14.5 14.5q29 10 12 55l-190 504q-6 12 -19 12h-440q-14 0 -21 -16 l-123 -363q-29 -80 -28 -137q0 -29 23.5 -44t54.5 -15h20q20 0 21 -13q0 -16 -31 -16q-29 0 -90.5 3t-69.5 3q-2 0 -88 -3t-143 -3q-39 0 -39 16zM475 686q-6 -14 6 -14h391q12 0 9 14l-195 553q-14 47 -31 0zM514 1800q0 72 68.5 124t173.5 52q78 0 123 -31.5t45 -84.5 q2 -80 -76 -130.5t-174 -50.5q-76 0 -118 34t-42 87zM604 1827q0 -43 32 -70.5t71 -27.5q51 0 85.5 30.5t34.5 73.5q0 39 -26.5 66.5t-79.5 27.5q-41 0 -79 -26.5t-38 -73.5z" />
<glyph unicode="&#xc6;" horiz-adv-x="1867" d="M-143 10q0 12 22 13q45 0 86 20q61 31 103.5 76t111.5 143q70 96 752 1165q37 57 45 86q6 29 27 29q4 0 14 -1t16 -1q20 -4 35 -4q422 0 469 2q59 4 88 10q4 0 13.5 5.5t15.5 5.5q8 0 8 -19q0 -6 -3 -17.5t-7 -33t-6 -45.5q0 -4 -4.5 -62.5t-6.5 -72.5q-4 -23 -14 -23 q-16 0 -16 27q0 45 -12.5 73.5t-41 45t-104.5 24.5q-51 6 -281 6q-12 0 -12 -20v-649q0 -20 12 -21q279 0 326 4q76 6 96 29q23 27 31 26q10 0 10 -16q0 -4 -3 -18.5t-7 -41t-6 -55.5q-8 -82 -8 -116q0 -33 -15 -33q-12 0 -16 22q0 27 -6 50q-18 61 -121 71q-41 4 -279 4 q-14 0 -14 -18v-92v-352q4 -106 46 -136t192 -30q143 0 196 22q39 16 60.5 49t31.5 97q6 31 18.5 30.5t12.5 -30.5q0 -14 -10 -91t-16 -106q-10 -39 -29 -46t-82 -7q-106 0 -346 6q-119 6 -160 6q-2 0 -29.5 -1t-50.5 -1q-78 -4 -112 -4q-33 0 -33 16q0 12 16 13q20 0 58 8 q45 8 59 112q10 86 10 445v94q0 16 -18 16h-361q-27 0 -37 -14q-57 -78 -233 -379q-88 -145 -88 -207q0 -43 41 -59q43 -16 90 -16q25 0 25 -14.5t-35 -14.5q-51 0 -109.5 1t-99.5 3t-47 2q-4 0 -42 -2t-92.5 -3t-97.5 -1q-26 0 -26 16zM633 791q-10 -18 8 -19h328 q18 0 18 16v553q0 6 -3 8.5t-7 0.5t-8 -9q-29 -43 -176.5 -284t-159.5 -266z" />
<glyph unicode="&#xc7;" horiz-adv-x="1648" d="M131 793q0 129 53.5 282.5t175.5 276.5q219 219 625 219q164 0 297 -25q145 -27 209 -30q27 -2 27 -23q0 -6 -2.5 -19.5t-4.5 -39t-4 -56.5q-2 -37 -4 -117.5t-2 -93.5q-2 -43 -18.5 -43t-16.5 43q0 135 -86 209q-57 49 -168.5 83t-240.5 34q-317 0 -471 -150 q-104 -100 -144.5 -230t-40.5 -304q0 -303 210 -526.5t530 -223.5q256 0 356 103q57 59 76 172q6 31 20.5 31t14.5 -31q0 -16 -15.5 -116.5t-29.5 -145.5q-8 -29 -16.5 -38t-37.5 -22q-117 -47 -368 -47q-31 0 -45 2q-47 -39 -115 -106q205 -20 205 -146q0 -55 -43 -99 t-103 -69q-82 -37 -159 -36q-27 0 -27 16q0 18 41 22q59 6 105.5 40t46.5 85q0 106 -148 150q-31 8 -31 18q0 8 27 29l121 100q-336 23 -551 215q-248 224 -248 607z" />
<glyph unicode="&#xc8;" horiz-adv-x="1249" d="M186 1526q0 16 33 16q102 0 148 -2l84 -4q422 0 469 2q59 4 88 10q4 0 13 5.5t15 5.5q8 0 8 -19q0 -6 -3 -17.5t-7 -33t-6 -45.5q0 -4 -4 -62.5t-6 -72.5q-4 -23 -14 -23q-16 0 -17 27q0 45 -12 73.5t-41 45t-105 24.5q-51 6 -280 6q-12 0 -12 -20v-565q0 -20 12 -21 q279 0 325 4q76 6 97 29q23 27 30 26q10 0 11 -16q0 -4 -3 -18.5t-7.5 -41t-6.5 -55.5q-8 -82 -8 -131q0 -39 -14.5 -39t-14.5 19q0 41 -8 67q-18 63 -106 72q-92 10 -293 10q-14 0 -14 -14v-180v-350q4 -106 46 -137t191 -31q143 0 197 22q72 31 92 148q6 31 18.5 30.5 t12.5 -30.5q0 -14 -10.5 -92t-16.5 -107q-10 -39 -28.5 -46t-82.5 -7q-106 0 -346 6q-119 6 -159 6q-39 0 -82 -2q-23 0 -64 -2t-55 -2q-33 0 -33 16q0 12 16 13q25 0 62 8q45 8 59 112q10 86 11 445v360q0 377 -5 443q-4 55 -21 80.5t-67 35.5q-25 6 -69 6q-17 1 -17 13z M338 1855q0 10 22 17q94 27 123 39q27 10 33 10q4 0 8 -4t9.5 -12.5t13.5 -16.5q61 -61 201 -149q39 -27 38 -29q0 -10 -18 -10q-49 0 -371 121q-59 22 -59 34z" />
<glyph unicode="&#xc9;" horiz-adv-x="1249" d="M186 1526q0 16 33 16q102 0 148 -2l84 -4q422 0 469 2q59 4 88 10q4 0 13 5.5t15 5.5q8 0 8 -19q0 -6 -3 -17.5t-7 -33t-6 -45.5q0 -4 -4 -62.5t-6 -72.5q-4 -23 -14 -23q-16 0 -17 27q0 45 -12 73.5t-41 45t-105 24.5q-51 6 -280 6q-12 0 -12 -20v-565q0 -20 12 -21 q279 0 325 4q76 6 97 29q23 27 30 26q10 0 11 -16q0 -4 -3 -18.5t-7.5 -41t-6.5 -55.5q-8 -82 -8 -131q0 -39 -14.5 -39t-14.5 19q0 41 -8 67q-18 63 -106 72q-92 10 -293 10q-14 0 -14 -14v-180v-350q4 -106 46 -137t191 -31q143 0 197 22q72 31 92 148q6 31 18.5 30.5 t12.5 -30.5q0 -14 -10.5 -92t-16.5 -107q-10 -39 -28.5 -46t-82.5 -7q-106 0 -346 6q-119 6 -159 6q-39 0 -82 -2q-23 0 -64 -2t-55 -2q-33 0 -33 16q0 12 16 13q25 0 62 8q45 8 59 112q10 86 11 445v360q0 377 -5 443q-4 55 -21 80.5t-67 35.5q-25 6 -69 6q-17 1 -17 13z M535 1712q0 8 14 17q121 84 278 174q45 27 58 26q8 0 20 -18q8 -10 51 -90q14 -25 -8 -25h-61q-143 -14 -312 -86q-25 -10 -30 -10q-10 0 -10 12z" />
<glyph unicode="&#xca;" horiz-adv-x="1249" d="M186 1526q0 16 33 16q102 0 148 -2l84 -4q422 0 469 2q59 4 88 10q4 0 13 5.5t15 5.5q8 0 8 -19q0 -6 -3 -17.5t-7 -33t-6 -45.5q0 -4 -4 -62.5t-6 -72.5q-4 -23 -14 -23q-16 0 -17 27q0 45 -12 73.5t-41 45t-105 24.5q-51 6 -280 6q-12 0 -12 -20v-565q0 -20 12 -21 q279 0 325 4q76 6 97 29q23 27 30 26q10 0 11 -16q0 -4 -3 -18.5t-7.5 -41t-6.5 -55.5q-8 -82 -8 -131q0 -39 -14.5 -39t-14.5 19q0 41 -8 67q-18 63 -106 72q-92 10 -293 10q-14 0 -14 -14v-180v-350q4 -106 46 -137t191 -31q143 0 197 22q72 31 92 148q6 31 18.5 30.5 t12.5 -30.5q0 -14 -10.5 -92t-16.5 -107q-10 -39 -28.5 -46t-82.5 -7q-106 0 -346 6q-119 6 -159 6q-39 0 -82 -2q-23 0 -64 -2t-55 -2q-33 0 -33 16q0 12 16 13q25 0 62 8q45 8 59 112q10 86 11 445v360q0 377 -5 443q-4 55 -21 80.5t-67 35.5q-25 6 -69 6q-17 1 -17 13z M395 1690q0 6 13 22q49 49 229 213q23 20 33 21q6 0 32 -21l207 -156q25 -16 25 -20t-10 -18l-43 -45q-12 -12 -19 -13q-8 0 -16 10q-29 31 -89.5 80t-82.5 62q-16 8 -21 8q-12 0 -32 -10q-51 -27 -175 -129q-23 -20 -37 -20t-14 16z" />
<glyph unicode="&#xcb;" horiz-adv-x="1249" d="M186 1526q0 16 33 16q102 0 148 -2l84 -4q422 0 469 2q59 4 88 10q4 0 13 5.5t15 5.5q8 0 8 -19q0 -6 -3 -17.5t-7 -33t-6 -45.5q0 -4 -4 -62.5t-6 -72.5q-4 -23 -14 -23q-16 0 -17 27q0 45 -12 73.5t-41 45t-105 24.5q-51 6 -280 6q-12 0 -12 -20v-565q0 -20 12 -21 q279 0 325 4q76 6 97 29q23 27 30 26q10 0 11 -16q0 -4 -3 -18.5t-7.5 -41t-6.5 -55.5q-8 -82 -8 -131q0 -39 -14.5 -39t-14.5 19q0 41 -8 67q-18 63 -106 72q-92 10 -293 10q-14 0 -14 -14v-180v-350q4 -106 46 -137t191 -31q143 0 197 22q72 31 92 148q6 31 18.5 30.5 t12.5 -30.5q0 -14 -10.5 -92t-16.5 -107q-10 -39 -28.5 -46t-82.5 -7q-106 0 -346 6q-119 6 -159 6q-39 0 -82 -2q-23 0 -64 -2t-55 -2q-33 0 -33 16q0 12 16 13q25 0 62 8q45 8 59 112q10 86 11 445v360q0 377 -5 443q-4 55 -21 80.5t-67 35.5q-25 6 -69 6q-17 1 -17 13z M371 1788q0 33 22.5 60.5t65.5 27.5q39 0 63.5 -22.5t24.5 -59.5q0 -41 -24.5 -67.5t-65.5 -26.5q-43 0 -64.5 26.5t-21.5 61.5zM782 1788q0 33 22.5 60.5t65.5 27.5q39 0 63.5 -22.5t24.5 -59.5q0 -41 -24.5 -67.5t-65.5 -26.5q-43 0 -64.5 26.5t-21.5 61.5z" />
<glyph unicode="&#xcc;" horiz-adv-x="901" d="M125 1855q0 10 22 17q94 27 123 39q27 10 33 10q4 0 8 -4t9.5 -12.5t13.5 -16.5q61 -61 201 -149q39 -27 38 -29q0 -10 -18 -10q-49 0 -371 121q-59 22 -59 34zM211 1526q0 16 33 16q31 0 80 -1t87 -3t40 -2t39.5 2t86 3t74.5 1q33 0 33 -16q0 -12 -16 -13q-14 0 -52 -6 q-41 -8 -56 -34.5t-19 -81.5q-4 -66 -4 -443v-360q0 -358 10 -445q6 -51 21.5 -78.5t58.5 -33.5q57 -8 92 -8q16 0 16 -13q0 -16 -33 -16q-49 0 -109.5 1t-100 3t-41.5 2t-40 -2t-86.5 -3t-74.5 -1q-33 0 -33 16q0 12 16 13q25 0 62 8q45 8 59 112q10 86 11 445v360 q0 377 -5 443q-6 100 -69 114q-31 8 -64 8q-16 1 -16 13z" />
<glyph unicode="&#xcd;" horiz-adv-x="901" d="M211 1526q0 16 33 16q31 0 80 -1t87 -3t40 -2t39.5 2t86 3t74.5 1q33 0 33 -16q0 -12 -16 -13q-14 0 -52 -6q-41 -8 -56 -34.5t-19 -81.5q-4 -66 -4 -443v-360q0 -358 10 -445q6 -51 21.5 -78.5t58.5 -33.5q57 -8 92 -8q16 0 16 -13q0 -16 -33 -16q-49 0 -109.5 1t-100 3 t-41.5 2t-40 -2t-86.5 -3t-74.5 -1q-33 0 -33 16q0 12 16 13q25 0 62 8q45 8 59 112q10 86 11 445v360q0 377 -5 443q-6 100 -69 114q-31 8 -64 8q-16 1 -16 13zM342 1712q0 8 14 17q121 84 279 174q45 27 57 26q8 0 21 -18q8 -10 51 -90q14 -25 -8 -25h-62 q-143 -14 -311 -86q-25 -10 -31 -10q-10 0 -10 12z" />
<glyph unicode="&#xce;" horiz-adv-x="901" d="M182 1690q0 6 13 22q49 49 229 213q23 20 33 21q6 0 32 -21l207 -156q25 -16 25 -20t-10 -18l-43 -45q-12 -12 -19 -13q-8 0 -16 10q-29 31 -89.5 80t-82.5 62q-16 8 -21 8q-12 0 -32 -10q-51 -27 -175 -129q-23 -20 -37 -20t-14 16zM211 1526q0 16 33 16q31 0 80 -1 t87 -3t40 -2t39.5 2t86 3t74.5 1q33 0 33 -16q0 -12 -16 -13q-14 0 -52 -6q-41 -8 -56 -34.5t-19 -81.5q-4 -66 -4 -443v-360q0 -358 10 -445q6 -51 21.5 -78.5t58.5 -33.5q57 -8 92 -8q16 0 16 -13q0 -16 -33 -16q-49 0 -109.5 1t-100 3t-41.5 2t-40 -2t-86.5 -3t-74.5 -1 q-33 0 -33 16q0 12 16 13q25 0 62 8q45 8 59 112q10 86 11 445v360q0 377 -5 443q-6 100 -69 114q-31 8 -64 8q-16 1 -16 13z" />
<glyph unicode="&#xcf;" horiz-adv-x="901" d="M158 1788q0 33 22.5 60.5t65.5 27.5q39 0 63.5 -22.5t24.5 -59.5q0 -41 -24.5 -67.5t-65.5 -26.5q-43 0 -64.5 26.5t-21.5 61.5zM211 1526q0 16 33 16q31 0 80 -1t87 -3t40 -2t39.5 2t86 3t74.5 1q33 0 33 -16q0 -12 -16 -13q-14 0 -52 -6q-41 -8 -56 -34.5t-19 -81.5 q-4 -66 -4 -443v-360q0 -358 10 -445q6 -51 21.5 -78.5t58.5 -33.5q57 -8 92 -8q16 0 16 -13q0 -16 -33 -16q-49 0 -109.5 1t-100 3t-41.5 2t-40 -2t-86.5 -3t-74.5 -1q-33 0 -33 16q0 12 16 13q25 0 62 8q45 8 59 112q10 86 11 445v360q0 377 -5 443q-6 100 -69 114 q-31 8 -64 8q-16 1 -16 13zM569 1788q0 33 22.5 60.5t65.5 27.5q39 0 63.5 -22.5t24.5 -59.5q0 -41 -24.5 -67.5t-65.5 -26.5q-43 0 -64.5 26.5t-21.5 61.5z" />
<glyph unicode="&#xd0;" horiz-adv-x="1878" d="M170 762l6 33q6 18 27 18h162v135q0 377 -5 443q-4 55 -21 80.5t-67 35.5q-25 6 -69 6q-16 0 -17 13q0 16 33 16q41 0 96.5 -1t94.5 -3t41 -2l102 4q100 2 174 2h39q90 0 143.5 -1t153.5 -13t174 -35t160 -70t151 -114q199 -207 199 -521q0 -344 -221 -577 q-225 -236 -621 -236q-109 0 -284 13q-37 2 -79 5t-64.5 5t-26.5 2q-39 0 -82 -2q-23 0 -64 -2t-55 -2q-33 0 -33 16q0 12 16 13q25 0 62 8q45 8 59 112q10 86 11 445v151h-181q-18 0 -14 23zM537 629q0 -281 4 -346q6 -131 22 -156q55 -82 348 -82q297 0 488 191 q78 76 121 210t43 279q0 309 -197 516q-131 139 -292 185.5t-380 46.5q-102 0 -131 -15q-25 -10 -24 -41l-2 -602h419q18 0 15 -22l-8 -39q-2 -16 -27 -17h-399v-108z" />
<glyph unicode="&#xd1;" horiz-adv-x="1939" d="M135 10q0 12 17 13q47 0 84 12q37 10 49 63.5t12 196.5l2 1173q0 102 23 103q8 0 19 -10.5t29.5 -31t22.5 -24.5l651 -702l284 -309q177 -195 208 -226l-23 1041q-2 102 -17 142t-62 52q-45 10 -101 10q-16 0 -16 14.5t41 14.5q55 0 133 -3t80 -3q4 0 64.5 3t109.5 3 q37 0 37 -14.5t-23 -14.5q-25 0 -49 -6q-49 -10 -62.5 -47t-13.5 -135l-4 -1200q0 -51 -1 -80t-3 -43t-5 -18t-9 -4q-18 0 -150 131l-96 97l-212 218l-226 240l-535 587l27 -981q2 -125 19.5 -175t60.5 -62q47 -12 102 -12q16 0 16 -13q0 -16 -36 -16q-51 0 -101.5 1t-81 3 t-34.5 2l-70 -4q-72 -2 -127 -2q-33 0 -33 16zM668 1720q0 8 14 31q31 47 82 96t94 49q41 0 172 -63q70 -35 119 -35q80 0 125 60q14 23 24 22q14 0 15 -12q0 -10 -8 -27q-18 -35 -73.5 -88t-96.5 -53q-55 0 -162 53l-28 14q-19 10 -32.5 16.5t-35 11.5t-43.5 5 q-14 0 -28.5 -3t-26.5 -9l-20 -11q-9 -5 -18.5 -14.5t-13.5 -14.5l-10 -13l-8 -9q-16 -18 -28.5 -18t-12.5 12z" />
<glyph unicode="&#xd2;" horiz-adv-x="1873" d="M131 770q0 131 48 266t141.5 257t255 200t362.5 78q352 0 578.5 -208t226.5 -560t-227.5 -595t-589.5 -243q-162 0 -297 48t-225.5 128t-154 186.5t-91 217t-27.5 225.5zM326 827q0 -352 186 -568t469 -216q63 0 130 15.5t147.5 61.5t142 119.5t103.5 204.5t42 301 q0 352 -182 554t-440 202q-266 0 -432 -174t-166 -500zM610 1855q0 10 23 17q94 27 123 39q27 10 32 10q4 0 8.5 -4t9.5 -12.5t13 -16.5q61 -61 201 -149q39 -27 39 -29q0 -10 -19 -10q-49 0 -370 121q-60 22 -60 34z" />
<glyph unicode="&#xd3;" horiz-adv-x="1873" d="M131 770q0 131 48 266t141.5 257t255 200t362.5 78q352 0 578.5 -208t226.5 -560t-227.5 -595t-589.5 -243q-162 0 -297 48t-225.5 128t-154 186.5t-91 217t-27.5 225.5zM326 827q0 -352 186 -568t469 -216q63 0 130 15.5t147.5 61.5t142 119.5t103.5 204.5t42 301 q0 352 -182 554t-440 202q-266 0 -432 -174t-166 -500zM827 1712q0 8 15 17q121 84 278 174q45 27 58 26q8 0 20 -18q8 -10 51 -90q14 -25 -8 -25h-61q-143 -14 -312 -86q-25 -10 -30 -10q-11 0 -11 12z" />
<glyph unicode="&#xd4;" horiz-adv-x="1873" d="M131 770q0 131 48 266t141.5 257t255 200t362.5 78q352 0 578.5 -208t226.5 -560t-227.5 -595t-589.5 -243q-162 0 -297 48t-225.5 128t-154 186.5t-91 217t-27.5 225.5zM326 827q0 -352 186 -568t469 -216q63 0 130 15.5t147.5 61.5t142 119.5t103.5 204.5t42 301 q0 352 -182 554t-440 202q-266 0 -432 -174t-166 -500zM668 1690q0 6 12 22q49 49 229 213q23 20 33 21q6 0 33 -21l207 -156q25 -16 24.5 -20t-10.5 -18l-43 -45q-12 -12 -18 -13q-8 0 -17 10q-29 31 -89 80t-83 62q-16 8 -20 8q-12 0 -33 -10q-51 -27 -174 -129 q-23 -20 -37 -20t-14 16z" />
<glyph unicode="&#xd5;" horiz-adv-x="1873" d="M131 770q0 131 48 266t141.5 257t255 200t362.5 78q352 0 578.5 -208t226.5 -560t-227.5 -595t-589.5 -243q-162 0 -297 48t-225.5 128t-154 186.5t-91 217t-27.5 225.5zM326 827q0 -352 186 -568t469 -216q63 0 130 15.5t147.5 61.5t142 119.5t103.5 204.5t42 301 q0 352 -182 554t-440 202q-266 0 -432 -174t-166 -500zM614 1720q0 8 15 31q31 47 82 96t94 49q41 0 172 -63q70 -35 119 -35q80 0 125 60q14 23 24 22q14 0 15 -12q0 -10 -9 -27q-18 -35 -73.5 -88t-96.5 -53q-55 0 -161 53l-28 14q-19 10 -32.5 16.5t-35 11.5t-44.5 5 q-14 0 -28.5 -3t-25.5 -9l-20 -11q-9 -5 -18.5 -14.5t-13.5 -14.5l-10 -13l-9 -9q-16 -18 -28.5 -18t-12.5 12z" />
<glyph unicode="&#xd6;" horiz-adv-x="1873" d="M131 770q0 131 48 266t141.5 257t255 200t362.5 78q352 0 578.5 -208t226.5 -560t-227.5 -595t-589.5 -243q-162 0 -297 48t-225.5 128t-154 186.5t-91 217t-27.5 225.5zM326 827q0 -352 186 -568t469 -216q63 0 130 15.5t147.5 61.5t142 119.5t103.5 204.5t42 301 q0 352 -182 554t-440 202q-266 0 -432 -174t-166 -500zM643 1788q0 33 22.5 60.5t65.5 27.5q39 0 63.5 -22.5t24.5 -59.5q0 -41 -24.5 -67.5t-65.5 -26.5q-43 0 -64.5 26.5t-21.5 61.5zM1055 1788q0 33 22.5 60.5t65.5 27.5q39 0 63.5 -22.5t24.5 -59.5q0 -41 -24.5 -67.5 t-65.5 -26.5q-43 0 -64.5 26.5t-21.5 61.5z" />
<glyph unicode="&#xd7;" horiz-adv-x="1044" d="M113 199l333 340l-331 342l73 75l332 -342l334 342l78 -75l-334 -342l334 -340l-76 -76l-334 340l-332 -340z" />
<glyph unicode="&#xd8;" horiz-adv-x="1873" d="M131 770q0 131 48 266t141.5 257t255 200t362.5 78q315 0 528 -168l168 180q10 10 29 -4l41 -33q12 -14 0 -26l-166 -179q205 -209 205 -538q0 -352 -227.5 -595t-589.5 -243q-309 0 -512 170l-178 -190q-8 -12 -21 0l-41 39q-12 12 -4 20l178 193q-109 113 -163 264 t-54 309zM326 827q0 -299 139 -505l901 972q-176 207 -444 207q-266 0 -431 -174t-165 -500zM520 250q184 -207 461 -207q63 0 130 15.5t147.5 61.5t142 119.5t103.5 204.5t42 301q0 281 -123 474z" />
<glyph unicode="&#xd9;" horiz-adv-x="1699" d="M68 1526q0 16 32 16q55 0 146 -2l90 -4q4 0 85 3t118 3q33 0 32 -16q0 -12 -16 -13q-14 0 -51 -6q-39 -6 -55.5 -32.5t-20.5 -83.5q-4 -66 -4 -443v-286q0 -205 40 -321t114 -185q70 -66 141.5 -89.5t167.5 -23.5q92 0 179 40t142 107q119 147 119 502v256q0 377 -4 443 q-4 55 -21.5 80.5t-66.5 35.5q-25 6 -70 6q-16 0 -16 13q0 16 33 16q41 0 92 -1t87 -3t38 -2t68.5 3t103.5 3q33 0 33 -16q0 -12 -17 -13q-14 0 -51 -6q-41 -8 -56.5 -34.5t-19.5 -81.5q-4 -66 -4 -443v-219q0 -203 -39 -358.5t-149 -253.5q-170 -152 -422 -152 q-268 0 -422 146q-178 170 -178 538v299q0 377 -4 443q-4 55 -21.5 80.5t-66.5 35.5q-25 6 -70 6q-16 1 -16 13zM532 1855q0 10 23 17q94 27 123 39q27 10 33 10q4 0 8 -4t9 -12.5t13 -16.5q61 -61 201 -149q39 -27 39 -29q0 -10 -18 -10q-49 0 -371 121q-60 22 -60 34z" />
<glyph unicode="&#xda;" horiz-adv-x="1699" d="M68 1526q0 16 32 16q55 0 146 -2l90 -4q4 0 85 3t118 3q33 0 32 -16q0 -12 -16 -13q-14 0 -51 -6q-39 -6 -55.5 -32.5t-20.5 -83.5q-4 -66 -4 -443v-286q0 -205 40 -321t114 -185q70 -66 141.5 -89.5t167.5 -23.5q92 0 179 40t142 107q119 147 119 502v256q0 377 -4 443 q-4 55 -21.5 80.5t-66.5 35.5q-25 6 -70 6q-16 0 -16 13q0 16 33 16q41 0 92 -1t87 -3t38 -2t68.5 3t103.5 3q33 0 33 -16q0 -12 -17 -13q-14 0 -51 -6q-41 -8 -56.5 -34.5t-19.5 -81.5q-4 -66 -4 -443v-219q0 -203 -39 -358.5t-149 -253.5q-170 -152 -422 -152 q-268 0 -422 146q-178 170 -178 538v299q0 377 -4 443q-4 55 -21.5 80.5t-66.5 35.5q-25 6 -70 6q-16 1 -16 13zM780 1712q0 8 15 17q121 84 278 174q45 27 57 26q8 0 21 -18q8 -10 51 -90q14 -25 -8 -25h-61q-143 -14 -312 -86q-25 -10 -30 -10q-11 0 -11 12z" />
<glyph unicode="&#xdb;" horiz-adv-x="1699" d="M68 1526q0 16 32 16q55 0 146 -2l90 -4q4 0 85 3t118 3q33 0 32 -16q0 -12 -16 -13q-14 0 -51 -6q-39 -6 -55.5 -32.5t-20.5 -83.5q-4 -66 -4 -443v-286q0 -205 40 -321t114 -185q70 -66 141.5 -89.5t167.5 -23.5q92 0 179 40t142 107q119 147 119 502v256q0 377 -4 443 q-4 55 -21.5 80.5t-66.5 35.5q-25 6 -70 6q-16 0 -16 13q0 16 33 16q41 0 92 -1t87 -3t38 -2t68.5 3t103.5 3q33 0 33 -16q0 -12 -17 -13q-14 0 -51 -6q-41 -8 -56.5 -34.5t-19.5 -81.5q-4 -66 -4 -443v-219q0 -203 -39 -358.5t-149 -253.5q-170 -152 -422 -152 q-268 0 -422 146q-178 170 -178 538v299q0 377 -4 443q-4 55 -21.5 80.5t-66.5 35.5q-25 6 -70 6q-16 1 -16 13zM610 1690q0 6 13 22q49 49 229 213q23 20 33 21q6 0 33 -21l206 -156q25 -16 25 -20t-10 -18l-43 -45q-12 -12 -19 -13q-8 0 -16 10q-29 31 -89.5 80t-82.5 62 q-16 8 -21 8q-12 0 -32 -10q-51 -27 -174 -129q-23 -20 -37.5 -20t-14.5 16z" />
<glyph unicode="&#xdc;" horiz-adv-x="1699" d="M68 1526q0 16 32 16q55 0 146 -2l90 -4q4 0 85 3t118 3q33 0 32 -16q0 -12 -16 -13q-14 0 -51 -6q-39 -6 -55.5 -32.5t-20.5 -83.5q-4 -66 -4 -443v-286q0 -205 40 -321t114 -185q70 -66 141.5 -89.5t167.5 -23.5q92 0 179 40t142 107q119 147 119 502v256q0 377 -4 443 q-4 55 -21.5 80.5t-66.5 35.5q-25 6 -70 6q-16 0 -16 13q0 16 33 16q41 0 92 -1t87 -3t38 -2t68.5 3t103.5 3q33 0 33 -16q0 -12 -17 -13q-14 0 -51 -6q-41 -8 -56.5 -34.5t-19.5 -81.5q-4 -66 -4 -443v-219q0 -203 -39 -358.5t-149 -253.5q-170 -152 -422 -152 q-268 0 -422 146q-178 170 -178 538v299q0 377 -4 443q-4 55 -21.5 80.5t-66.5 35.5q-25 6 -70 6q-16 1 -16 13zM596 1788q0 33 22.5 60.5t65.5 27.5q39 0 63.5 -22.5t24.5 -59.5q0 -41 -24.5 -67.5t-65.5 -26.5q-43 0 -64.5 26.5t-21.5 61.5zM1008 1788q0 33 22.5 60.5 t65.5 27.5q39 0 63.5 -22.5t24.5 -59.5q0 -41 -24.5 -67.5t-65.5 -26.5q-43 0 -64.5 26.5t-21.5 61.5z" />
<glyph unicode="&#xdd;" horiz-adv-x="1339" d="M-63 1527.5q0 14.5 26 14.5q23 0 112 -3t91 -3q4 0 30.5 2t66.5 3t75 1q27 0 27 -14q0 -4 -31 -19q-27 -14 -27 -36q0 -31 27 -80l188 -326q162 -279 189 -322q25 55 158 290l182 313q35 55 34.5 104t-32.5 57q-31 10 -31 21q0 12 33 12q31 0 81 -3t54 -3q2 0 89 3t110 3 q27 0 26 -12q0 -16 -26 -17q-49 0 -95 -28q-45 -27 -108 -105q-49 -59 -206 -321t-185 -330q-31 -74 -31 -205v-176q0 -119 6 -205q6 -102 84 -112q57 -8 92 -8q16 0 17 -13q0 -16 -33 -16q-49 0 -109.5 1t-100.5 3t-42 2t-40 -2t-86 -3t-75 -1q-33 0 -33 16q0 12 17 13 q25 0 61 8q57 12 64 112q6 86 6 205v176q0 111 -47 215q-10 25 -158.5 268.5t-202.5 321.5q-72 106 -139 152q-49 33 -88 32q-20 0 -20 14.5zM621 1712q0 8 14 17q121 84 278 174q45 27 58 26q8 0 20 -18q8 -10 51 -90q14 -25 -8 -25h-61q-143 -14 -311 -86q-25 -10 -31 -10 q-10 0 -10 12z" />
<glyph unicode="&#xde;" horiz-adv-x="1325" d="M186 1526q0 16 33 16q41 0 94.5 -1t93 -3t44.5 -2q2 0 41.5 2t97 3t102.5 1q33 0 33 -14.5t-16 -14.5q-23 0 -80 -8q-88 -16 -92 -108q-4 -172 -5 -193q119 8 179 8q248 0 381 -116q39 -35 69.5 -101.5t30.5 -140.5q0 -217 -142.5 -352t-361.5 -135q-33 0 -43 2 q-23 0 -22 14q0 18 55 18q150 0 252 96.5t102 237.5q0 199 -114 316q-100 102 -281 102q-59 0 -88 -12q-16 -6 -17 -39v-514q0 -358 11 -445q6 -51 21.5 -78.5t58.5 -33.5q57 -8 92 -8q16 0 16 -13q0 -16 -33 -16q-49 0 -109.5 1t-100 3t-42.5 2l-36 -2q-37 -2 -85.5 -3 t-74.5 -1q-33 0 -33 16q0 12 16 13q25 0 62 8q45 8 59 112q10 86 11 445v360q0 377 -5 443q-4 55 -21 80.5t-67 35.5q-25 6 -69 6q-17 1 -17 13z" />
<glyph unicode="&#xdf;" horiz-adv-x="2146" d="M139 84q0 41 11 184q0 29 14 29q16 0 16 -21q0 -39 6 -63q20 -88 101.5 -130t183.5 -42q129 0 199.5 64.5t70.5 166.5q0 88 -48 146.5t-179 156.5l-82 62q-141 106 -199.5 192t-58.5 181q0 152 109.5 239.5t289.5 87.5q100 0 187 -20q35 -8 63 -8q18 0 19 -13l-2 -22 q-2 -23 -4 -66t-2 -96q0 -39 -15 -39q-12 0 -16 23q-4 47 -27 86q-10 16 -29.5 32.5t-75 35t-128.5 18.5q-102 0 -171 -50.5t-69 -138.5q0 -82 49 -142t185 -153l51 -34q162 -111 228.5 -208.5t66.5 -211.5q0 -188 -168 -297q-94 -61 -287 -62q-162 0 -262 47 q-18 8 -22.5 19.5t-4.5 46.5zM1212 84q0 41 11 184q0 29 14 29q16 0 16 -21q0 -39 7 -63q20 -88 101 -130t183 -42q129 0 200 64.5t71 166.5q0 88 -48.5 146.5t-179.5 156.5l-82 62q-141 106 -199.5 192t-58.5 181q0 152 109.5 239.5t290.5 87.5q100 0 186 -20q35 -8 63 -8 q18 0 19 -13l-2 -22q-2 -23 -4 -66t-2 -96q0 -39 -15 -39q-12 0 -16 23q-4 47 -27 86q-10 16 -29.5 32.5t-74.5 35t-129 18.5q-102 0 -171 -50.5t-69 -138.5q0 -82 49.5 -142t184.5 -153l51 -34q162 -111 228.5 -208.5t66.5 -211.5q0 -188 -168 -297q-94 -61 -287 -62 q-162 0 -262 47q-18 8 -22.5 19.5t-4.5 46.5z" />
<glyph unicode="&#xe0;" horiz-adv-x="1277" d="M-53 8.5q0 14.5 16 14.5q25 0 53 4q57 6 89 45t63 114l424 1090q27 68 43 67q6 0 10 -2t8 -9l7 -12q3 -5 8.5 -18.5t9.5 -21.5q14 -31 97 -237l186 -457l149 -363q31 -72 61.5 -114.5t49 -55t43.5 -20.5q33 -10 71 -10q23 0 23 -14.5t-41 -14.5q-160 0 -285 4 q-63 4 -63 12q0 6 12 13q31 12 16 47l-161 399q-4 10 -17 10h-416q-12 0 -18 -14l-102 -279q-27 -70 -27 -116.5t61 -46.5h17q18 0 18 -14.5t-26 -14.5q-25 0 -89.5 3t-72.5 3q-2 0 -70.5 -3t-111.5 -3q-35 0 -35 14.5zM313 1620q0 10 23 16q94 27 123 39q27 10 33 11 q4 0 8 -4.5t9 -12.5t13 -16q61 -61 201 -150q39 -27 39 -28q0 -10 -19 -11q-49 0 -370 121q-60 23 -60 35zM422 563q-4 -12 6 -12h365q10 0 6 12l-178 477q-14 41 -31 0z" />
<glyph unicode="&#xe1;" horiz-adv-x="1277" d="M-53 8.5q0 14.5 16 14.5q25 0 53 4q57 6 89 45t63 114l424 1090q27 68 43 67q6 0 10 -2t8 -9l7 -12q3 -5 8.5 -18.5t9.5 -21.5q14 -31 97 -237l186 -457l149 -363q31 -72 61.5 -114.5t49 -55t43.5 -20.5q33 -10 71 -10q23 0 23 -14.5t-41 -14.5q-160 0 -285 4 q-63 4 -63 12q0 6 12 13q31 12 16 47l-161 399q-4 10 -17 10h-416q-12 0 -18 -14l-102 -279q-27 -70 -27 -116.5t61 -46.5h17q18 0 18 -14.5t-26 -14.5q-25 0 -89.5 3t-72.5 3q-2 0 -70.5 -3t-111.5 -3q-35 0 -35 14.5zM422 563q-4 -12 6 -12h365q10 0 6 12l-178 477 q-14 41 -31 0zM530 1477q0 8 15 16q121 84 278 174q45 27 58 27q8 0 20 -19q8 -10 51 -90q14 -25 -8 -24h-61q-143 -14 -312 -86q-25 -10 -30 -11q-11 1 -11 13z" />
<glyph unicode="&#xe2;" horiz-adv-x="1277" d="M-53 8.5q0 14.5 16 14.5q25 0 53 4q57 6 89 45t63 114l424 1090q27 68 43 67q6 0 10 -2t8 -9l7 -12q3 -5 8.5 -18.5t9.5 -21.5q14 -31 97 -237l186 -457l149 -363q31 -72 61.5 -114.5t49 -55t43.5 -20.5q33 -10 71 -10q23 0 23 -14.5t-41 -14.5q-160 0 -285 4 q-63 4 -63 12q0 6 12 13q31 12 16 47l-161 399q-4 10 -17 10h-416q-12 0 -18 -14l-102 -279q-27 -70 -27 -116.5t61 -46.5h17q18 0 18 -14.5t-26 -14.5q-25 0 -89.5 3t-72.5 3q-2 0 -70.5 -3t-111.5 -3q-35 0 -35 14.5zM371 1454q0 6 12 23q49 49 229 213q23 20 33 20 q6 0 33 -20l207 -156q25 -16 24 -21q0 -2 -10 -18l-43 -45q-12 -12 -18 -12q-8 0 -17 10q-29 31 -89 80t-83 61q-16 8 -20 8q-12 0 -33 -10q-51 -27 -174 -129q-23 -20 -37 -20t-14 16zM422 563q-4 -12 6 -12h365q10 0 6 12l-178 477q-14 41 -31 0z" />
<glyph unicode="&#xe3;" horiz-adv-x="1277" d="M-53 8.5q0 14.5 16 14.5q25 0 53 4q57 6 89 45t63 114l424 1090q27 68 43 67q6 0 10 -2t8 -9l7 -12q3 -5 8.5 -18.5t9.5 -21.5q14 -31 97 -237l186 -457l149 -363q31 -72 61.5 -114.5t49 -55t43.5 -20.5q33 -10 71 -10q23 0 23 -14.5t-41 -14.5q-160 0 -285 4 q-63 4 -63 12q0 6 12 13q31 12 16 47l-161 399q-4 10 -17 10h-416q-12 0 -18 -14l-102 -279q-27 -70 -27 -116.5t61 -46.5h17q18 0 18 -14.5t-26 -14.5q-25 0 -89.5 3t-72.5 3q-2 0 -70.5 -3t-111.5 -3q-35 0 -35 14.5zM317 1485q0 10 15 31q31 47 82 96t94 49q41 0 172 -64 q70 -35 119 -34q80 0 125 59q14 23 24 23q14 0 15 -13q0 -10 -9 -26q-18 -35 -73.5 -88.5t-96.5 -53.5q-55 0 -161 54l-28 14q-19 10 -32.5 16t-35 11.5t-44.5 5.5q-61 0 -125 -74q-14 -18 -28 -18q-13 0 -13 12zM422 563q-4 -12 6 -12h365q10 0 6 12l-178 477q-14 41 -31 0 z" />
<glyph unicode="&#xe4;" horiz-adv-x="1277" d="M-53 8.5q0 14.5 16 14.5q25 0 53 4q57 6 89 45t63 114l424 1090q27 68 43 67q6 0 10 -2t8 -9l7 -12q3 -5 8.5 -18.5t9.5 -21.5q14 -31 97 -237l186 -457l149 -363q31 -72 61.5 -114.5t49 -55t43.5 -20.5q33 -10 71 -10q23 0 23 -14.5t-41 -14.5q-160 0 -285 4 q-63 4 -63 12q0 6 12 13q31 12 16 47l-161 399q-4 10 -17 10h-416q-12 0 -18 -14l-102 -279q-27 -70 -27 -116.5t61 -46.5h17q18 0 18 -14.5t-26 -14.5q-25 0 -89.5 3t-72.5 3q-2 0 -70.5 -3t-111.5 -3q-35 0 -35 14.5zM346 1552q0 33 22.5 60.5t65.5 27.5q39 0 63.5 -22.5 t24.5 -58.5q0 -41 -24.5 -68t-65.5 -27q-43 0 -64.5 26.5t-21.5 61.5zM422 563q-4 -12 6 -12h365q10 0 6 12l-178 477q-14 41 -31 0zM758 1552q0 33 22.5 60.5t65.5 27.5q39 0 63.5 -22.5t24.5 -58.5q0 -41 -24.5 -68t-65.5 -27q-43 0 -64.5 26.5t-21.5 61.5z" />
<glyph unicode="&#xe5;" horiz-adv-x="1277" d="M-53 8.5q0 14.5 16 14.5q25 0 53 4q57 6 89 45t63 114l424 1090q27 68 43 67q6 0 10 -2t8 -9l7 -12q3 -5 8.5 -18.5t9.5 -21.5q14 -31 97 -237l186 -457l149 -363q31 -72 61.5 -114.5t49 -55t43.5 -20.5q33 -10 71 -10q23 0 23 -14.5t-41 -14.5q-160 0 -285 4 q-63 4 -63 12q0 6 12 13q31 12 16 47l-161 399q-4 10 -17 10h-416q-12 0 -18 -14l-102 -279q-27 -70 -27 -116.5t61 -46.5h17q18 0 18 -14.5t-26 -14.5q-25 0 -89.5 3t-72.5 3q-2 0 -70.5 -3t-111.5 -3q-35 0 -35 14.5zM422 563q-4 -12 6 -12h365q10 0 6 12l-178 477 q-14 41 -31 0zM436 1565q0 72 68.5 124t173.5 52q78 0 123 -32t45 -85q2 -80 -76 -130t-174 -50q-76 0 -118 34t-42 87zM526 1591q0 -43 32 -70.5t71 -27.5q51 0 86 30.5t35 73.5q0 41 -27 68t-80 27q-41 0 -79 -27t-38 -74z" />
<glyph unicode="&#xe6;" horiz-adv-x="1669" d="M-127 8q0 10 21 10q39 0 75 19q12 6 24.5 13t24 16.5t20.5 15.5t20.5 19.5t17.5 19.5t19.5 23.5t18.5 23.5l21 27l23 28q39 51 661 989q33 49 41 74q6 25 23 25q6 0 26.5 -2t30.5 -2h434q43 0 78 10q4 0 12.5 4t12.5 4q8 0 8 -16q0 -4 -6 -29t-9 -53q0 -4 -4 -53.5 t-6 -61.5q-4 -18 -12 -18q-18 0 -18 22q0 35 -11 62q-12 25 -33.5 35t-91.5 18q-45 6 -254 6q-12 0 -12 -18v-543q0 -18 12 -19q252 0 295 5q72 6 84 22q16 23 27 23q8 0 8 -15q0 -4 -3 -15t-6 -33.5t-5 -47.5q-6 -51 -6 -100q0 -27 -13 -27q-18 0 -18 27q0 14 -6 32 q-12 47 -103 56q-35 4 -254 4q-12 0 -12 -17v-71v-305q4 -86 43 -107.5t174 -21.5q127 0 174 18q35 14 50.5 40t25.5 79q6 25 21 24q12 0 12 -24q0 -14 -9.5 -80t-15.5 -88q-8 -33 -24.5 -39t-71.5 -6q-203 0 -315 6q-29 0 -65 1t-55.5 2t-31.5 1q-2 0 -26.5 -1t-43.5 -1 q-66 -4 -98 -4q-29 0 -29 14.5t15 14.5q10 0 30.5 4t24.5 4q43 8 53 92q8 72 8 377v71q0 14 -16 15h-319q-23 0 -31 -13q-37 -47 -203 -313q-80 -127 -80 -176q0 -35 35 -47q39 -14 78 -14q20 0 20 -17q0 -12 -30 -12q-45 0 -97.5 1t-88.5 3t-42 2q-4 0 -36.5 -2t-81 -3 t-84.5 -1q-25 0 -25 14zM563 672q-10 -16 6 -17h289q16 0 16 15v471q0 20 -16 0q-23 -33 -152 -238.5t-143 -230.5z" />
<glyph unicode="&#xe7;" horiz-adv-x="1449" d="M113 674q0 109 47 239.5t155 235.5q195 186 549 186q150 0 262 -18q10 -2 80 -14.5t105 -14.5q23 0 22 -18q0 -6 -1 -16.5l-3 -33t-4 -49.5q0 -27 -1 -96t-3 -82q-2 -37 -21 -37q-14 0 -14 37q0 115 -76 174q-115 96 -354 97q-276 0 -405 -121q-92 -86 -127 -196.5 t-35 -258.5q0 -258 183 -444.5t466 -186.5q113 0 180.5 16.5t116.5 65.5q51 51 70 146q6 25 18 24q16 0 16 -24q0 -12 -15 -98.5t-28 -125.5q-8 -25 -15 -34t-30 -17q-100 -39 -325 -39q-47 0 -70 2q-82 -74 -121 -112q205 -20 205 -146q0 -55 -43 -99t-102 -69 q-82 -37 -160 -36q-27 0 -27 16q0 18 41 22q59 6 105.5 40t46.5 85q0 106 -148 150q-31 8 -30 18q0 8 26 29l131 106q-272 29 -448 181q-219 188 -219 516z" />
<glyph unicode="&#xe8;" horiz-adv-x="1128" d="M164 1296.5q0 14.5 29 14.5q37 0 86 -1t84.5 -2t37.5 -1h430q16 0 82 10q2 0 11.5 4t13.5 4q8 0 8 -16q0 -4 -6 -29t-8 -53q0 -4 -4 -53.5t-6 -61.5q-4 -18 -17 -18q-14 0 -14 22q0 35 -10 62q-10 23 -35 34t-94 19q-47 6 -260 6q-10 0 -11 -18v-474q0 -18 11 -18 q260 0 301 4q70 6 88 25q23 23 26 22q10 0 11 -14q0 -4 -3.5 -15.5t-6.5 -34t-5 -46.5q-8 -70 -8 -113q0 -33 -16 -33q-12 0 -13 17q0 35 -8 57q-10 43 -92 53q-66 8 -272 8q-12 0 -13 -12v-145v-297q4 -88 43 -114t172 -26t181 19q37 16 55 43t26 78q6 27 18.5 26.5 t12.5 -26.5q0 -12 -9 -78t-15 -90q-8 -33 -25.5 -39t-75.5 -6q-92 0 -313 6q-76 4 -150 4q-39 0 -77 -2q-70 -4 -105 -4q-29 0 -29 14.5t15 14.5q10 0 30.5 4t24.5 4q16 2 25.5 17t12.5 27.5t9 47.5q10 72 10 377v307q0 319 -4 375q-4 49 -17 69.5t-56 26.5q-29 4 -62 4 q-14 0 -14 14.5zM279 1620q0 10 22 16q94 27 123 39q27 10 33 11q4 0 8 -4.5t9 -12.5t13 -16q61 -61 201 -150q39 -27 39 -28q0 -10 -18 -11q-49 0 -371 121q-59 23 -59 35z" />
<glyph unicode="&#xe9;" horiz-adv-x="1128" d="M164 1296.5q0 14.5 29 14.5q37 0 86 -1t84.5 -2t37.5 -1h430q16 0 82 10q2 0 11.5 4t13.5 4q8 0 8 -16q0 -4 -6 -29t-8 -53q0 -4 -4 -53.5t-6 -61.5q-4 -18 -17 -18q-14 0 -14 22q0 35 -10 62q-10 23 -35 34t-94 19q-47 6 -260 6q-10 0 -11 -18v-474q0 -18 11 -18 q260 0 301 4q70 6 88 25q23 23 26 22q10 0 11 -14q0 -4 -3.5 -15.5t-6.5 -34t-5 -46.5q-8 -70 -8 -113q0 -33 -16 -33q-12 0 -13 17q0 35 -8 57q-10 43 -92 53q-66 8 -272 8q-12 0 -13 -12v-145v-297q4 -88 43 -114t172 -26t181 19q37 16 55 43t26 78q6 27 18.5 26.5 t12.5 -26.5q0 -12 -9 -78t-15 -90q-8 -33 -25.5 -39t-75.5 -6q-92 0 -313 6q-76 4 -150 4q-39 0 -77 -2q-70 -4 -105 -4q-29 0 -29 14.5t15 14.5q10 0 30.5 4t24.5 4q16 2 25.5 17t12.5 27.5t9 47.5q10 72 10 377v307q0 319 -4 375q-4 49 -17 69.5t-56 26.5q-29 4 -62 4 q-14 0 -14 14.5zM455 1477q0 8 14 16q121 84 279 174q45 27 57 27q8 0 20 -19q8 -10 52 -90q14 -25 -9 -24h-61q-143 -14 -311 -86q-25 -10 -31 -11q-10 1 -10 13z" />
<glyph unicode="&#xea;" horiz-adv-x="1128" d="M164 1296.5q0 14.5 29 14.5q37 0 86 -1t84.5 -2t37.5 -1h430q16 0 82 10q2 0 11.5 4t13.5 4q8 0 8 -16q0 -4 -6 -29t-8 -53q0 -4 -4 -53.5t-6 -61.5q-4 -18 -17 -18q-14 0 -14 22q0 35 -10 62q-10 23 -35 34t-94 19q-47 6 -260 6q-10 0 -11 -18v-474q0 -18 11 -18 q260 0 301 4q70 6 88 25q23 23 26 22q10 0 11 -14q0 -4 -3.5 -15.5t-6.5 -34t-5 -46.5q-8 -70 -8 -113q0 -33 -16 -33q-12 0 -13 17q0 35 -8 57q-10 43 -92 53q-66 8 -272 8q-12 0 -13 -12v-145v-297q4 -88 43 -114t172 -26t181 19q37 16 55 43t26 78q6 27 18.5 26.5 t12.5 -26.5q0 -12 -9 -78t-15 -90q-8 -33 -25.5 -39t-75.5 -6q-92 0 -313 6q-76 4 -150 4q-39 0 -77 -2q-70 -4 -105 -4q-29 0 -29 14.5t15 14.5q10 0 30.5 4t24.5 4q16 2 25.5 17t12.5 27.5t9 47.5q10 72 10 377v307q0 319 -4 375q-4 49 -17 69.5t-56 26.5q-29 4 -62 4 q-14 0 -14 14.5zM315 1454q0 6 13 23q49 49 229 213q23 20 33 20q6 0 33 -20l206 -156q25 -16 25 -21q0 -2 -10 -18l-43 -45q-12 -12 -19 -12q-8 0 -16 10q-29 31 -89.5 80t-82.5 61q-16 8 -21 8q-12 0 -32 -10q-51 -27 -174 -129q-23 -20 -37.5 -20t-14.5 16z" />
<glyph unicode="&#xeb;" horiz-adv-x="1128" d="M164 1296.5q0 14.5 29 14.5q37 0 86 -1t84.5 -2t37.5 -1h430q16 0 82 10q2 0 11.5 4t13.5 4q8 0 8 -16q0 -4 -6 -29t-8 -53q0 -4 -4 -53.5t-6 -61.5q-4 -18 -17 -18q-14 0 -14 22q0 35 -10 62q-10 23 -35 34t-94 19q-47 6 -260 6q-10 0 -11 -18v-474q0 -18 11 -18 q260 0 301 4q70 6 88 25q23 23 26 22q10 0 11 -14q0 -4 -3.5 -15.5t-6.5 -34t-5 -46.5q-8 -70 -8 -113q0 -33 -16 -33q-12 0 -13 17q0 35 -8 57q-10 43 -92 53q-66 8 -272 8q-12 0 -13 -12v-145v-297q4 -88 43 -114t172 -26t181 19q37 16 55 43t26 78q6 27 18.5 26.5 t12.5 -26.5q0 -12 -9 -78t-15 -90q-8 -33 -25.5 -39t-75.5 -6q-92 0 -313 6q-76 4 -150 4q-39 0 -77 -2q-70 -4 -105 -4q-29 0 -29 14.5t15 14.5q10 0 30.5 4t24.5 4q16 2 25.5 17t12.5 27.5t9 47.5q10 72 10 377v307q0 319 -4 375q-4 49 -17 69.5t-56 26.5q-29 4 -62 4 q-14 0 -14 14.5zM270 1552q0 33 22.5 60.5t65.5 27.5q39 0 63.5 -22.5t24.5 -58.5q0 -41 -24.5 -68t-65.5 -27q-43 0 -64.5 26.5t-21.5 61.5zM682 1552q0 33 22.5 60.5t65.5 27.5q39 0 63.5 -22.5t24.5 -58.5q0 -41 -24.5 -68t-65.5 -27q-43 0 -64.5 26.5t-21.5 61.5z" />
<glyph unicode="&#xec;" horiz-adv-x="796" d="M72 1620q0 10 22 16q94 27 123 39q27 10 33 11q4 0 8 -4.5t9 -12.5t14 -16q61 -61 200 -150q39 -27 39 -28q0 -10 -18 -11q-49 0 -371 121q-59 23 -59 35zM186 1296.5q0 14.5 29 14.5q27 0 70 -1t76.5 -2t35.5 -1t36 1t77 2t68 1q29 0 28.5 -14.5t-14.5 -14.5 q-25 0 -45 -4q-35 -8 -47.5 -27.5t-16.5 -68.5q-2 -55 -2 -375v-307q0 -305 8 -377q4 -31 8.5 -46.5t18.5 -28.5t39 -17q53 -8 82 -8q14 0 14 -14.5t-28 -14.5q-45 0 -98.5 1t-90.5 3l-37 2q-2 0 -35.5 -2t-75.5 -3t-67 -1q-29 0 -29 14.5t15 14.5q23 0 55 8q37 8 47 92 q10 90 10 377v307q0 319 -4 375q-6 84 -57 94q-31 6 -55 6q-15 0 -15 14.5z" />
<glyph unicode="&#xed;" horiz-adv-x="796" d="M186 1296.5q0 14.5 29 14.5q27 0 70 -1t76.5 -2t35.5 -1t36 1t77 2t68 1q29 0 28.5 -14.5t-14.5 -14.5q-25 0 -45 -4q-35 -8 -47.5 -27.5t-16.5 -68.5q-2 -55 -2 -375v-307q0 -305 8 -377q4 -31 8.5 -46.5t18.5 -28.5t39 -17q53 -8 82 -8q14 0 14 -14.5t-28 -14.5 q-45 0 -98.5 1t-90.5 3l-37 2q-2 0 -35.5 -2t-75.5 -3t-67 -1q-29 0 -29 14.5t15 14.5q23 0 55 8q37 8 47 92q10 90 10 377v307q0 319 -4 375q-6 84 -57 94q-31 6 -55 6q-15 0 -15 14.5zM289 1477q0 8 14 16q121 84 279 174q45 27 57 27q8 0 20 -19q8 -10 52 -90 q14 -25 -9 -24h-61q-143 -14 -311 -86q-25 -10 -31 -11q-10 1 -10 13z" />
<glyph unicode="&#xee;" horiz-adv-x="796" d="M129 1454q0 6 12 23q49 49 230 213q23 20 32 20q6 0 33 -20l207 -156q25 -16 25 -21q0 -2 -11 -18l-43 -45q-12 -12 -18 -12q-8 0 -16 10q-29 31 -89.5 80t-82.5 61q-16 8 -21 8q-12 0 -33 -10q-51 -27 -174 -129q-23 -20 -37 -20t-14 16zM186 1296.5q0 14.5 29 14.5 q27 0 70 -1t76.5 -2t35.5 -1t36 1t77 2t68 1q29 0 28.5 -14.5t-14.5 -14.5q-25 0 -45 -4q-35 -8 -47.5 -27.5t-16.5 -68.5q-2 -55 -2 -375v-307q0 -305 8 -377q4 -31 8.5 -46.5t18.5 -28.5t39 -17q53 -8 82 -8q14 0 14 -14.5t-28 -14.5q-45 0 -98.5 1t-90.5 3l-37 2 q-2 0 -35.5 -2t-75.5 -3t-67 -1q-29 0 -29 14.5t15 14.5q23 0 55 8q37 8 47 92q10 90 10 377v307q0 319 -4 375q-6 84 -57 94q-31 6 -55 6q-15 0 -15 14.5z" />
<glyph unicode="&#xef;" horiz-adv-x="796" d="M104 1552q0 33 23 60.5t66 27.5q39 0 63.5 -22.5t24.5 -58.5q0 -41 -25 -68t-66 -27q-43 0 -64.5 26.5t-21.5 61.5zM186 1296.5q0 14.5 29 14.5q27 0 70 -1t76.5 -2t35.5 -1t36 1t77 2t68 1q29 0 28.5 -14.5t-14.5 -14.5q-25 0 -45 -4q-35 -8 -47.5 -27.5t-16.5 -68.5 q-2 -55 -2 -375v-307q0 -305 8 -377q4 -31 8.5 -46.5t18.5 -28.5t39 -17q53 -8 82 -8q14 0 14 -14.5t-28 -14.5q-45 0 -98.5 1t-90.5 3l-37 2q-2 0 -35.5 -2t-75.5 -3t-67 -1q-29 0 -29 14.5t15 14.5q23 0 55 8q37 8 47 92q10 90 10 377v307q0 319 -4 375q-6 84 -57 94 q-31 6 -55 6q-15 0 -15 14.5zM516 1552q0 33 22.5 60.5t65.5 27.5q39 0 63.5 -22.5t24.5 -58.5q0 -41 -24.5 -68t-65.5 -27q-43 0 -64.5 26.5t-21.5 61.5z" />
<glyph unicode="&#xf0;" horiz-adv-x="1656" d="M150 643l6 35q2 14 22 14h139v115q0 319 -4 375q-4 49 -17 69.5t-56 26.5q-29 4 -62 4q-14 0 -14 14.5t29 14.5q37 0 85 -1t82.5 -2t36.5 -1q6 0 46 1t96.5 2t103.5 1q256 0 373 -23q219 -43 350 -176q176 -176 176 -442q0 -291 -194 -490q-195 -201 -547 -200 q-55 0 -254 10q-133 10 -150 10h-12q-10 0 -26.5 -1t-32.5 -1q-74 -4 -107 -4q-29 0 -29 14.5t15 14.5q23 0 55 8q16 4 25.5 18t12.5 27.5t9 46.5q10 72 10 377v125h-155q-14 0 -12 18zM481 530q0 -262 2 -290q4 -104 21 -125q47 -70 299 -70q258 0 424 160q139 131 139 411 q0 266 -168 435q-117 119 -256 156.5t-332 37.5q-90 0 -106 -12q-23 -8 -23 -35v-504h365q18 0 12 -18l-6 -39q-2 -14 -25 -14h-346v-93z" />
<glyph unicode="&#xf1;" horiz-adv-x="1705" d="M141 8.5q0 14.5 15 14.5q41 0 73 10q33 8 42.5 51t9.5 166v997q0 88 24 88q16 0 70 -53l569 -594l426 -448l-18 872q-2 88 -14.5 121t-53.5 41q-43 8 -88 8q-14 0 -14 16q0 12 35 13q49 0 117.5 -2t70.5 -2q4 0 57.5 2t96.5 2q33 0 32 -13q0 -16 -20 -16q-23 0 -43 -4 q-43 -8 -53.5 -38t-10.5 -114l-4 -1020v-68q0 -24 -2 -37t-5 -16t-7 -3q-20 0 -137 106q-117 104 -469 471q-408 426 -467 494l20 -822q2 -106 17.5 -147t52.5 -51q41 -10 90 -10q14 0 14 -14.5t-32 -14.5q-45 0 -89.5 1t-71 3t-30.5 2l-61 -4q-63 -2 -113 -2 q-29 0 -29 14.5zM530 1485q0 10 15 31q31 47 82 96t94 49q41 0 172 -64q70 -35 119 -34q80 0 125 59q14 23 24 23q14 0 15 -13q0 -10 -9 -26q-18 -35 -73.5 -88.5t-96.5 -53.5q-55 0 -161 54l-28 14q-19 10 -32.5 16t-35 11.5t-44.5 5.5q-61 0 -125 -74q-14 -18 -28 -18 q-13 0 -13 12z" />
<glyph unicode="&#xf2;" horiz-adv-x="1654" d="M113 655q0 88 25.5 179.5t83 181.5t138 160.5t202.5 114.5t265 44q311 0 512 -177t201 -476t-201.5 -505t-521.5 -206q-176 0 -316.5 62.5t-222 164t-123.5 218t-42 239.5zM299 702q0 -299 161 -479t408 -180q55 0 112.5 12.5t128.5 51t123 100t88 172t36 254.5 q0 299 -157 468t-382 169q-233 0 -375.5 -146t-142.5 -422zM502 1620q0 10 22 16q94 27 123 39q27 10 33 11q4 0 8 -4.5t9 -12.5t14 -16q61 -61 200 -150q39 -27 39 -28q0 -10 -18 -11q-49 0 -371 121q-59 23 -59 35z" />
<glyph unicode="&#xf3;" horiz-adv-x="1654" d="M113 655q0 88 25.5 179.5t83 181.5t138 160.5t202.5 114.5t265 44q311 0 512 -177t201 -476t-201.5 -505t-521.5 -206q-176 0 -316.5 62.5t-222 164t-123.5 218t-42 239.5zM299 702q0 -299 161 -479t408 -180q55 0 112.5 12.5t128.5 51t123 100t88 172t36 254.5 q0 299 -157 468t-382 169q-233 0 -375.5 -146t-142.5 -422zM719 1477q0 8 14 16q121 84 279 174q45 27 57 27q8 0 21 -19q8 -10 51 -90q14 -25 -8 -24h-62q-143 -14 -311 -86q-25 -10 -31 -11q-10 1 -10 13z" />
<glyph unicode="&#xf4;" horiz-adv-x="1654" d="M113 655q0 88 25.5 179.5t83 181.5t138 160.5t202.5 114.5t265 44q311 0 512 -177t201 -476t-201.5 -505t-521.5 -206q-176 0 -316.5 62.5t-222 164t-123.5 218t-42 239.5zM299 702q0 -299 161 -479t408 -180q55 0 112.5 12.5t128.5 51t123 100t88 172t36 254.5 q0 299 -157 468t-382 169q-233 0 -375.5 -146t-142.5 -422zM559 1454q0 6 12 23q49 49 230 213q23 20 33 20q6 0 32 -20l207 -156q25 -16 25 -21q0 -2 -11 -18l-43 -45q-12 -12 -18 -12q-8 0 -16 10q-29 31 -89.5 80t-82.5 61q-16 8 -21 8q-12 0 -33 -10q-51 -27 -174 -129 q-23 -20 -37 -20t-14 16z" />
<glyph unicode="&#xf5;" horiz-adv-x="1654" d="M113 655q0 88 25.5 179.5t83 181.5t138 160.5t202.5 114.5t265 44q311 0 512 -177t201 -476t-201.5 -505t-521.5 -206q-176 0 -316.5 62.5t-222 164t-123.5 218t-42 239.5zM299 702q0 -299 161 -479t408 -180q55 0 112.5 12.5t128.5 51t123 100t88 172t36 254.5 q0 299 -157 468t-382 169q-233 0 -375.5 -146t-142.5 -422zM524 1485q0 10 15 31q31 47 82 96t94 49q41 0 172 -64q70 -35 119 -34q80 0 124 59q14 23 25 23q14 0 14 -13q0 -10 -8 -26q-18 -35 -73.5 -88.5t-96.5 -53.5q-55 0 -162 54l-27 14q-19 10 -32.5 16t-35 11.5 t-44.5 5.5q-14 0 -28.5 -3t-25.5 -10l-21 -11q-9 -5 -18 -14t-13 -15l-11 -13l-8 -8q-16 -18 -28.5 -18t-12.5 12z" />
<glyph unicode="&#xf6;" horiz-adv-x="1654" d="M113 655q0 88 25.5 179.5t83 181.5t138 160.5t202.5 114.5t265 44q311 0 512 -177t201 -476t-201.5 -505t-521.5 -206q-176 0 -316.5 62.5t-222 164t-123.5 218t-42 239.5zM299 702q0 -299 161 -479t408 -180q55 0 112.5 12.5t128.5 51t123 100t88 172t36 254.5 q0 299 -157 468t-382 169q-233 0 -375.5 -146t-142.5 -422zM535 1552q0 33 22.5 60.5t65.5 27.5q39 0 63.5 -22.5t24.5 -58.5q0 -41 -24.5 -68t-65.5 -27q-43 0 -64.5 26.5t-21.5 61.5zM946 1552q0 33 22.5 60.5t65.5 27.5q39 0 63.5 -22.5t24.5 -58.5q0 -41 -24.5 -68 t-65.5 -27q-43 0 -64.5 26.5t-21.5 61.5z" />
<glyph unicode="&#xf7;" horiz-adv-x="1044" d="M86 498v104h872v-104h-872zM426 238q0 45 27.5 74.5t70.5 29.5q45 0 75 -28.5t30 -71.5q2 -45 -28 -75t-77 -30v-2q-43 0 -70.5 30t-27.5 73zM426 858q0 45 27.5 75t70.5 30q45 0 75 -29t30 -72q2 -45 -28 -74.5t-75 -29.5l-2 -2q-43 0 -70.5 29.5t-27.5 72.5z" />
<glyph unicode="&#xf8;" horiz-adv-x="1654" d="M113 655q0 88 25.5 179.5t83 181.5t138 160.5t201.5 114.5t264 44q279 0 467 -143l150 160q10 12 26 -4l35 -35q12 -10 0 -23l-145 -149q182 -182 182 -459q0 -299 -200.5 -505t-520.5 -206q-276 0 -452 144l-156 -164q-6 -8 -18 0l-41 35q-12 10 -5 18l158 162 q-192 190 -192 489zM297 702q0 -256 119 -428l784 824q-152 172 -387 172q-233 0 -374.5 -147t-141.5 -421zM465 215q158 -172 401 -172q57 0 114.5 12.5t127.5 52t122 101t88 171t36 253.5q0 242 -103 401z" />
<glyph unicode="&#xf9;" horiz-adv-x="1499" d="M72 1296.5q0 14.5 28 14.5q49 0 129 -2l78 -2q4 0 78 2t104.5 2t30.5 -14.5t-16 -14.5q-23 0 -45 -4q-33 -6 -45.5 -27.5t-16.5 -68.5q-4 -55 -4 -375v-244q0 -176 34 -272t99 -154q61 -55 123 -74.5t146 -19.5q82 0 156.5 34t121.5 89q102 123 103 422v219q0 264 -5 375 q-2 45 -16 67.5t-55 28.5q-29 4 -62 4q-14 0 -14 14.5t29 14.5q35 0 81 -1t78.5 -2t34.5 -1t61.5 2t90.5 2q29 0 28.5 -14.5t-14.5 -14.5q-23 0 -45 -4q-35 -8 -47 -28.5t-16 -67.5q-2 -27 -2 -375v-186q0 -379 -168 -523q-147 -127 -377 -127q-244 0 -375 123 q-158 147 -158 457v256q0 319 -4 375q-4 47 -18.5 68.5t-55.5 27.5q-29 4 -61 4q-14 0 -14 14.5zM463 1620q0 10 22 16q94 27 123 39q27 10 33 11q4 0 8 -4.5t9.5 -12.5t13.5 -16q61 -61 200 -150q39 -27 39 -28q0 -10 -18 -11q-49 0 -371 121q-59 23 -59 35z" />
<glyph unicode="&#xfa;" horiz-adv-x="1499" d="M72 1296.5q0 14.5 28 14.5q49 0 129 -2l78 -2q4 0 78 2t104.5 2t30.5 -14.5t-16 -14.5q-23 0 -45 -4q-33 -6 -45.5 -27.5t-16.5 -68.5q-4 -55 -4 -375v-244q0 -176 34 -272t99 -154q61 -55 123 -74.5t146 -19.5q82 0 156.5 34t121.5 89q102 123 103 422v219q0 264 -5 375 q-2 45 -16 67.5t-55 28.5q-29 4 -62 4q-14 0 -14 14.5t29 14.5q35 0 81 -1t78.5 -2t34.5 -1t61.5 2t90.5 2q29 0 28.5 -14.5t-14.5 -14.5q-23 0 -45 -4q-35 -8 -47 -28.5t-16 -67.5q-2 -27 -2 -375v-186q0 -379 -168 -523q-147 -127 -377 -127q-244 0 -375 123 q-158 147 -158 457v256q0 319 -4 375q-4 47 -18.5 68.5t-55.5 27.5q-29 4 -61 4q-14 0 -14 14.5zM641 1477q0 8 14 16q121 84 279 174q45 27 57 27q8 0 21 -19q8 -10 51 -90q14 -25 -8 -24h-62q-143 -14 -311 -86q-25 -10 -31 -11q-10 1 -10 13z" />
<glyph unicode="&#xfb;" horiz-adv-x="1499" d="M72 1296.5q0 14.5 28 14.5q49 0 129 -2l78 -2q4 0 78 2t104.5 2t30.5 -14.5t-16 -14.5q-23 0 -45 -4q-33 -6 -45.5 -27.5t-16.5 -68.5q-4 -55 -4 -375v-244q0 -176 34 -272t99 -154q61 -55 123 -74.5t146 -19.5q82 0 156.5 34t121.5 89q102 123 103 422v219q0 264 -5 375 q-2 45 -16 67.5t-55 28.5q-29 4 -62 4q-14 0 -14 14.5t29 14.5q35 0 81 -1t78.5 -2t34.5 -1t61.5 2t90.5 2q29 0 28.5 -14.5t-14.5 -14.5q-23 0 -45 -4q-35 -8 -47 -28.5t-16 -67.5q-2 -27 -2 -375v-186q0 -379 -168 -523q-147 -127 -377 -127q-244 0 -375 123 q-158 147 -158 457v256q0 319 -4 375q-4 47 -18.5 68.5t-55.5 27.5q-29 4 -61 4q-14 0 -14 14.5zM481 1454q0 6 13 23q49 49 229 213q23 20 33 20q6 0 32 -20l207 -156q25 -16 25 -21q0 -2 -10 -18l-43 -45q-12 -12 -19 -12q-8 0 -16 10q-29 31 -89.5 80t-82.5 61 q-16 8 -21 8q-12 0 -32 -10q-51 -27 -175 -129q-23 -20 -37 -20t-14 16z" />
<glyph unicode="&#xfc;" horiz-adv-x="1499" d="M72 1296.5q0 14.5 28 14.5q49 0 129 -2l78 -2q4 0 78 2t104.5 2t30.5 -14.5t-16 -14.5q-23 0 -45 -4q-33 -6 -45.5 -27.5t-16.5 -68.5q-4 -55 -4 -375v-244q0 -176 34 -272t99 -154q61 -55 123 -74.5t146 -19.5q82 0 156.5 34t121.5 89q102 123 103 422v219q0 264 -5 375 q-2 45 -16 67.5t-55 28.5q-29 4 -62 4q-14 0 -14 14.5t29 14.5q35 0 81 -1t78.5 -2t34.5 -1t61.5 2t90.5 2q29 0 28.5 -14.5t-14.5 -14.5q-23 0 -45 -4q-35 -8 -47 -28.5t-16 -67.5q-2 -27 -2 -375v-186q0 -379 -168 -523q-147 -127 -377 -127q-244 0 -375 123 q-158 147 -158 457v256q0 319 -4 375q-4 47 -18.5 68.5t-55.5 27.5q-29 4 -61 4q-14 0 -14 14.5zM496 1552q0 33 22.5 60.5t65.5 27.5q39 0 63.5 -22.5t24.5 -58.5q0 -41 -24.5 -68t-65.5 -27q-43 0 -64.5 26.5t-21.5 61.5zM907 1552q0 33 22.5 60.5t65.5 27.5 q39 0 63.5 -22.5t24.5 -58.5q0 -41 -24.5 -68t-65.5 -27q-43 0 -64.5 26.5t-21.5 61.5z" />
<glyph unicode="&#xfd;" horiz-adv-x="1179" d="M-49 1298q0 12 22 13q20 0 101 -2l78 -2q4 0 28.5 1t60 2t66.5 1q25 0 25 -13q0 -8 -29 -18q-23 -10 -22 -29q0 -23 24 -67l328 -543q16 33 82 144l134 227q69 115 79 133q31 53 30.5 90t-28.5 45q-27 6 -27 20q0 10 29 11q27 0 74 -2t51 -2t79.5 2t96.5 2q23 0 22 -11 q0 -18 -22 -18q-45 0 -84 -22q-37 -23 -90 -86q-41 -49 -180.5 -270.5t-169.5 -282.5q-10 -23 -16.5 -48.5t-7.5 -38t0 -48t1 -40.5v-149q0 -102 6 -174q4 -43 18.5 -64.5t51.5 -27.5q49 -8 82 -8q14 0 14 -14.5t-29 -14.5q-45 0 -98 1t-90 3t-39 2t-36 -2t-75.5 -3 t-64.5 -1q-29 0 -29 14.5t15 14.5q20 0 53 8q47 10 53 92q4 72 4 174v149q0 106 -39 179l-143 230q-131 210 -176 275q-53 82 -119 127q-41 25 -76 25q-18 0 -18 16zM481 1477q0 8 15 16q121 84 278 174q45 27 57 27q8 0 21 -19q8 -10 51 -90q14 -25 -8 -24h-61 q-143 -14 -312 -86q-25 -10 -30 -11q-11 1 -11 13z" />
<glyph unicode="&#xfe;" horiz-adv-x="1200" d="M164 1296.5q0 14.5 29 14.5q37 0 84 -1t81.5 -2t38.5 -1q2 0 38 1t87 2t90 1q31 0 31 -13q0 -16 -16 -16q-33 0 -70 -6q-76 -12 -76 -88q-4 -147 -4 -164q72 6 156 6q242 0 358 -100q35 -31 64.5 -90.5t29.5 -122.5q0 -180 -137 -293t-334 -113q-33 0 -43 2q-18 0 -18 13 q0 20 47 20q133 0 229.5 86t96.5 213q0 150 -101 248q-82 82 -260 82q-37 0 -73 -12q-14 -6 -15 -33v-430q0 -305 8 -377q6 -45 18.5 -65.5t51.5 -26.5q49 -8 78 -8q14 0 14 -14.5t-29 -14.5q-43 0 -97 1t-91 3l-37 2q-2 0 -33.5 -2t-73.5 -3t-67 -1q-29 0 -29 14.5t15 14.5 q20 0 53 8q25 6 33 26.5t16 65.5q10 72 10 377v307q0 319 -4 375q-4 47 -19 68.5t-54 27.5q-29 4 -62 4q-14 0 -14 14.5z" />
<glyph unicode="&#xff;" horiz-adv-x="1179" d="M-49 1298q0 12 22 13q20 0 101 -2l78 -2q4 0 28.5 1t60 2t66.5 1q25 0 25 -13q0 -8 -29 -18q-23 -10 -22 -29q0 -23 24 -67l328 -543q16 33 82 144l134 227q69 115 79 133q31 53 30.5 90t-28.5 45q-27 6 -27 20q0 10 29 11q27 0 74 -2t51 -2t79.5 2t96.5 2q23 0 22 -11 q0 -18 -22 -18q-45 0 -84 -22q-37 -23 -90 -86q-41 -49 -180.5 -270.5t-169.5 -282.5q-10 -23 -16.5 -48.5t-7.5 -38t0 -48t1 -40.5v-149q0 -102 6 -174q4 -43 18.5 -64.5t51.5 -27.5q49 -8 82 -8q14 0 14 -14.5t-29 -14.5q-45 0 -98 1t-90 3t-39 2t-36 -2t-75.5 -3 t-64.5 -1q-29 0 -29 14.5t15 14.5q20 0 53 8q47 10 53 92q4 72 4 174v149q0 106 -39 179l-143 230q-131 210 -176 275q-53 82 -119 127q-41 25 -76 25q-18 0 -18 16zM315 1552q0 33 22.5 60.5t65.5 27.5q39 0 64 -22.5t25 -58.5q0 -41 -25 -68t-66 -27q-43 0 -64.5 26.5 t-21.5 61.5zM727 1552q0 33 22.5 60.5t65.5 27.5q39 0 63.5 -22.5t24.5 -58.5q0 -41 -24.5 -68t-65.5 -27q-43 0 -64.5 26.5t-21.5 61.5z" />
<glyph unicode="&#x152;" horiz-adv-x="2430" d="M131 768q0 106 29.5 214t94 214.5t158 189t232.5 134t305 51.5q387 0 590 -256h8v133q0 18 -2 45t-2 31q0 18 21 18q2 0 9 -1t13 -1q25 -4 41 -4q426 0 473 2q59 4 88 10q4 0 13.5 5.5t15.5 5.5q8 0 8 -19q0 -6 -6 -34.5t-10 -57.5q0 -4 -4 -62.5t-6 -72.5 q-4 -23 -15 -23q-16 0 -16 27q0 45 -12.5 73.5t-41 45t-104.5 24.5q-53 6 -280 6q-12 0 -13 -24v-565q0 -20 13 -21q279 0 325 4q76 6 96 29q23 27 31 26q10 0 10 -16q0 -4 -3 -18.5t-7 -41t-6 -55.5q-8 -82 -8 -116q0 -33 -15 -33q-12 0 -16 22q0 27 -6 50q-18 61 -121 71 q-41 4 -278 4q-14 0 -15 -18v-92v-436q4 -106 46 -136t192 -30q143 0 196 22q39 16 60.5 49t32.5 97q6 31 18 30.5t12 -30.5q0 -14 -10 -91t-16 -106q-10 -39 -28.5 -46t-82.5 -7q-106 0 -346 6q-121 6 -160 6q-8 0 -21.5 -1t-19.5 -1q-20 -4 -28 -4q-20 0 -21 14 q0 6 3 25.5t3 36.5l4 180h-6q-84 -94 -137 -135q-199 -150 -483 -150q-201 0 -358.5 73t-250 191.5t-139.5 256t-47 282.5zM326 827q0 -352 186 -568t467 -216q63 0 130 15.5t148.5 61.5t143 119.5t103.5 204.5t42 301q0 352 -183 554t-441 202q-266 0 -431 -174t-165 -500z " />
<glyph unicode="&#x153;" horiz-adv-x="2164" d="M113 653q0 113 43 228.5t127 219t227 169t324 65.5q344 0 530 -227h6v123q0 16 -1 37.5t-1 25.5q0 16 16 17q2 0 17.5 -2t32.5 -2h438q6 0 78 10q2 0 11 4t13 4q8 0 8 -16q0 -4 -6 -28t-8 -50q0 -2 -4 -53.5t-6 -63.5q-4 -18 -14 -18q-16 0 -17 22q0 37 -10 62 q-20 41 -125 55q-47 6 -256 6q-12 0 -12 -22v-471q0 -18 12 -19q254 0 297 4q70 6 84 23q18 23 26.5 22.5t8.5 -14.5q0 -4 -3 -15.5t-6.5 -34t-5.5 -46.5q-6 -53 -6 -101q0 -27 -14 -26q-16 0 -16 18q0 23 -7 41q-12 49 -102 57q-35 4 -256 5q-12 0 -12 -17v-74v-374 q4 -86 44 -108.5t175 -22.5t172 18q63 31 78 119q6 25 18 24q14 0 14 -24q0 -14 -9 -80t-15 -88q-8 -33 -24.5 -39t-71.5 -6q-115 0 -324 6q-139 4 -145 4q-16 0 -31.5 -3t-22.5 -3q-16 0 -16 12q0 6 2 22.5t2 30.5l4 164h-6l-46 -52q-15 -17 -71.5 -62.5t-108.5 -70 t-141.5 -46t-187.5 -21.5q-176 0 -315.5 61.5t-220 162t-122.5 218t-42 240.5zM297 702q0 -293 160.5 -476t406.5 -183q55 0 114.5 13.5t132.5 52t128 101t93 172.5t38 251q0 291 -165 464t-392 173q-233 0 -374.5 -147t-141.5 -421z" />
<glyph unicode="&#x178;" horiz-adv-x="1339" d="M-63 1527.5q0 14.5 26 14.5q23 0 112 -3t91 -3q4 0 30.5 2t66.5 3t75 1q27 0 27 -14q0 -4 -31 -19q-27 -14 -27 -36q0 -31 27 -80l188 -326q162 -279 189 -322q25 55 158 290l182 313q35 55 34.5 104t-32.5 57q-31 10 -31 21q0 12 33 12q31 0 81 -3t54 -3q2 0 89 3t110 3 q27 0 26 -12q0 -16 -26 -17q-49 0 -95 -28q-45 -27 -108 -105q-49 -59 -206 -321t-185 -330q-31 -74 -31 -205v-176q0 -119 6 -205q6 -102 84 -112q57 -8 92 -8q16 0 17 -13q0 -16 -33 -16q-49 0 -109.5 1t-100.5 3t-42 2t-40 -2t-86 -3t-75 -1q-33 0 -33 16q0 12 17 13 q25 0 61 8q57 12 64 112q6 86 6 205v176q0 111 -47 215q-10 25 -158.5 268.5t-202.5 321.5q-72 106 -139 152q-49 33 -88 32q-20 0 -20 14.5zM426 1788q0 33 22.5 60.5t65.5 27.5q39 0 63.5 -22.5t24.5 -59.5q0 -41 -24.5 -67.5t-65.5 -26.5q-43 0 -64.5 26.5t-21.5 61.5z M838 1788q0 33 22.5 60.5t65.5 27.5q39 0 63.5 -22.5t24.5 -59.5q0 -41 -24.5 -67.5t-65.5 -26.5q-43 0 -64.5 26.5t-21.5 61.5z" />
<glyph unicode="&#x2c6;" horiz-adv-x="1865" d="M664 1690q0 6 12 22q49 49 229 213q23 20 33 21q6 0 33 -21l207 -156q25 -16 24.5 -20t-10.5 -18l-43 -45q-12 -12 -19 -13q-8 0 -16 10q-29 31 -89 80t-83 62q-16 8 -20 8q-12 0 -33 -10q-51 -27 -174 -129q-23 -20 -37 -20t-14 16z" />
<glyph unicode="&#x2dc;" horiz-adv-x="1865" d="M610 1720q0 8 15 31q31 47 82 96t94 49q41 0 172 -63q70 -35 119 -35q80 0 125 60q14 23 24 22q14 0 14 -12q0 -10 -8 -27q-18 -35 -73.5 -88t-96.5 -53q-55 0 -162 53l-27 14q-19 10 -32.5 16.5t-35 11.5t-44.5 5q-14 0 -28.5 -3t-25.5 -9l-21 -11q-9 -5 -18 -14.5 t-13 -14.5l-11 -13l-8 -9q-16 -18 -28.5 -18t-12.5 12z" />
<glyph unicode="&#x2013;" horiz-adv-x="1024" d="M0 578v94h1024v-94h-1024z" />
<glyph unicode="&#x2014;" horiz-adv-x="2048" d="M0 578v94h2048v-94h-2048z" />
<glyph unicode="&#x2018;" horiz-adv-x="409" d="M98 1260q0 98 55.5 210.5t120.5 192.5q10 16 27 16q10 0 10 -10q0 -8 -8 -27q-68 -143 -67 -292q0 -86 40 -133q18 -20 19 -35q0 -12 -19 -13q-45 0 -143 37q-35 19 -35 54z" />
<glyph unicode="&#x2019;" horiz-adv-x="409" d="M98 1180q0 8 8 26q68 143 68 293q0 86 -41 133q-18 20 -18 35q0 12 18 12q45 0 143 -37q35 -16 35 -53q0 -98 -55 -210.5t-121 -192.5q-10 -16 -26 -17q-11 1 -11 11z" />
<glyph unicode="&#x201a;" horiz-adv-x="409" d="M98 -219q0 8 8 26q68 143 68 293q0 86 -41 133q-18 20 -18 35q0 12 18 13q45 0 143 -37q35 -18 35 -54q0 -98 -55 -210.5t-121 -192.5q-10 -16 -26 -16q-11 0 -11 10z" />
<glyph unicode="&#x201c;" horiz-adv-x="665" d="M94 1260q0 98 55.5 210.5t120.5 192.5q10 16 27 16q10 0 10 -10q0 -8 -8 -27q-68 -143 -68 -292q0 -86 41 -133q18 -20 19 -35q0 -12 -19 -13q-45 0 -143 37q-35 19 -35 54zM360 1260q0 98 55.5 210.5t121.5 192.5q10 16 26 16q10 0 10 -10q0 -8 -8 -27 q-68 -143 -67 -292q0 -86 41 -133q18 -20 18 -35q0 -12 -18 -13q-45 0 -144 37q-35 19 -35 54z" />
<glyph unicode="&#x201d;" horiz-adv-x="665" d="M92 1180q0 8 8 26q68 143 68 293q0 86 -41 133q-18 20 -18 35q0 12 18 12q45 0 143 -37q35 -16 35 -53q0 -98 -55 -210.5t-121 -192.5q-10 -16 -27 -17q-10 1 -10 11zM358 1180q0 8 9 26q68 143 67 293q0 86 -41 133q-18 20 -18 35q0 12 18 12q45 0 144 -37 q35 -16 34 -53q0 -98 -55 -210.5t-121 -192.5q-10 -16 -26 -17q-11 1 -11 11z" />
<glyph unicode="&#x201e;" horiz-adv-x="665" d="M92 -219q0 8 8 26q68 143 68 293q0 86 -41 133q-18 20 -18 35q0 12 18 13q45 0 143 -37q35 -18 35 -54q0 -98 -55 -210.5t-121 -192.5q-10 -16 -27 -16q-10 0 -10 10zM358 -219q0 8 9 26q68 143 67 293q0 86 -41 133q-18 20 -18 35q0 12 18 13q45 0 144 -37 q35 -18 34 -54q0 -98 -55 -210.5t-121 -192.5q-10 -16 -26 -16q-11 0 -11 10z" />
<glyph unicode="&#x2022;" horiz-adv-x="860" d="M252 971q0 16 24 16q68 0 273 -45q61 -12 61 -35q0 -20 -12 -41q-57 -90 -229 -243q-33 -29 -41 -29q-10 0 -11 10q0 4 13 41q23 78 22 164q0 104 -71 139q-29 15 -29 23z" />
<glyph unicode="&#x2026;" horiz-adv-x="2048" d="M231 109q0 41 29 75.5t80 34.5q49 0 80 -28.5t31 -75.5q0 -49 -31 -82t-80 -33q-53 0 -81 34t-28 75zM915 109q0 41 29 75.5t80 34.5q49 0 80 -28.5t31 -75.5q0 -49 -31 -82t-80 -33q-53 0 -81 34t-28 75zM1599 109q0 41 29 75.5t80 34.5q49 0 80 -28.5t31 -75.5 q0 -49 -31 -82t-80 -33q-53 0 -81 34t-28 75z" />
<glyph unicode="&#x2039;" horiz-adv-x="768" d="M154 614.5q0 12.5 39 44.5q57 49 364 357q27 23 37 22q18 0 18 -16q0 -14 -12 -27q-2 -2 -30 -34l-66 -78l-81 -95l-79 -95q-37 -46 -53 -68q29 -35 126 -134.5t165 -158.5q29 -27 28 -31q0 -6 -8 -14l-61 -68q-6 -10 -17 -10q-8 0 -47 45q-188 213 -287 311 q-36 37 -36 49.5z" />
<glyph unicode="&#x203a;" horiz-adv-x="768" d="M156 225q0 14 12 27q2 2 30 35l66 78l81 94l79 95q37 46 53 69q-29 35 -126 134t-165 158q-29 27 -28 31q0 6 8 15l61 67q6 10 17 10q8 0 47 -45q188 -213 287 -311q37 -37 36.5 -49t-39.5 -45q-57 -49 -364 -357q-27 -23 -37 -22q-18 0 -18 16z" />
<glyph unicode="&#x20ac;" d="M-16 647l18 47q4 12 29 13h129q-2 18 -2 86q0 47 4 90h-154q-25 0 -16 18l18 47q4 12 29 13h133q43 266 196.5 438t393.5 172q109 0 205 -25q106 -29 155 -30q27 -2 27 -23q0 -6 -2 -18.5t-4 -37t-4 -57.5q-2 -14 -3 -60t-1 -65q0 -47 -17 -47q-14 0 -24 60 q-16 72 -52 114q-92 113 -288 113q-106 0 -185.5 -42t-125.5 -120t-70.5 -168t-34.5 -204h692q25 0 17 -19l-19 -47q-4 -12 -29 -12h-663q-4 -74 -4 -86q0 -16 4 -90h586q25 0 16 -19l-18 -47q-4 -12 -29 -12h-549q31 -250 156 -419t317 -169q211 0 279 180q18 53 34 53 q27 0 7 -79q-20 -102 -27 -123q-8 -29 -16.5 -38t-36.5 -22q-113 -47 -242 -47q-152 0 -270.5 55.5t-194.5 152.5t-120 211t-62 245h-166q-24 0 -16 18z" />
<glyph unicode="&#x2122;" horiz-adv-x="575" d="M0 1505q0 4 2 15l4 20l2 8l2 6q2 0 6 -2t10.5 -2t16.5 -1t12 -1h133q6 0 14.5 1t10.5 1q4 0 8 2h4v-12v-37q0 -10 -6 -10q-2 0 -4 8l-2 8q-4 16 -37 17h-41v-140v-69q0 -16 17 -21l10 -2q10 0 10 -4t-10 -4h-27l-20 2l-21 -2h-28q-8 0 -8.5 4t8.5 4h10q18 2 18 23 q0 2 1 24.5t1 44.5v140h-49q-33 0 -37 -21q-2 -8 -6 -8t-4 8zM213 1290q0 4 8 4h6q18 0 21 29l28 219q0 14 11 14q6 0 10 -10l96 -200l96 202q2 8 11 8q6 0 6 -14l26 -211q4 -37 31 -37h4q8 0 8 -4t-6 -4q-49 0 -65 4q-8 0 -8 8l-19 168h2l-80 -159q-10 -20 -14 -21 q-6 0 -14 21l-80 161h-2l-13 -131q0 -4 -1 -12t-1 -16q0 -14 13 -15q14 0 14 -4t-6 -4t-22.5 1t-18.5 1l-12 -2h-23q-6 0 -6 4z" />
<glyph unicode="&#xe000;" horiz-adv-x="1310" d="M0 1310h1310v-1310h-1310v1310z" />
<glyph unicode="&#xfb01;" horiz-adv-x="1892" d="M164 1296.5q0 14.5 29 14.5q37 0 85 -1t82.5 -2t36.5 -1h467q72 4 82 8q6 2 14.5 6t10.5 4q12 0 12 -16q0 -4 -2 -14.5t-6 -29t-6 -38.5q0 -4 -3 -53.5t-5 -61.5q-4 -18 -17 -18q-14 0 -14 20q0 29 -17 66q-8 18 -41.5 34.5t-80.5 16.5l-295 4q-14 0 -15 -18v-476 q0 -16 13 -16l245 2q57 0 82 2q63 6 84 31q14 18 23 18q10 0 10 -14q0 -4 -3 -15.5t-7 -34t-6 -46.5q-6 -53 -7 -117q0 -35 -16 -35q-12 0 -12 16q-4 45 -13 64q-14 43 -92 55q-31 4 -288 4q-12 0 -13 -16v-139q0 -309 8 -377q6 -43 18.5 -64.5t47.5 -27.5q53 -8 82 -8 q14 0 14 -14.5t-28 -14.5q-45 0 -98.5 1t-90.5 3l-37 2q-2 0 -35.5 -2t-75.5 -3t-67 -1q-29 0 -29 14.5t15 14.5q10 0 30.5 4t24.5 4q16 2 25.5 17t12.5 27.5t9 47.5q10 72 10 377v307q0 319 -4 375q-4 49 -17 69.5t-56 26.5q-29 4 -62 4q-14 0 -14 14.5zM1282 1296.5 q0 14.5 29 14.5q27 0 69.5 -1t76.5 -2t36 -1t36 1t77 2t67 1q29 0 29 -14.5t-14 -14.5q-25 0 -46 -4q-35 -8 -47 -27.5t-16 -68.5q-2 -55 -2 -375v-307q0 -305 8 -377q4 -31 8 -46.5t18.5 -28.5t39.5 -17q53 -8 82 -8q14 0 14 -14.5t-29 -14.5q-45 0 -98 1t-90 3l-37 2 q-2 0 -36 -2t-76 -3t-66 -1q-29 0 -29 14.5t14 14.5q23 0 56 8q37 8 47 92q10 90 10 377v307q0 319 -4 375q-6 84 -57 94q-31 6 -56 6q-14 0 -14 14.5z" />
<glyph unicode="&#xfb02;" horiz-adv-x="2191" d="M164 1296.5q0 14.5 29 14.5q37 0 85 -1t82.5 -2t36.5 -1h467q72 4 82 8q6 2 14.5 6t10.5 4q12 0 12 -16q0 -4 -2 -14.5t-6 -29t-6 -38.5q0 -4 -3 -53.5t-5 -61.5q-4 -18 -17 -18q-14 0 -14 20q0 29 -17 66q-8 18 -41.5 34.5t-80.5 16.5l-295 4q-14 0 -15 -18v-476 q0 -16 13 -16l245 2q57 0 82 2q63 6 84 31q14 18 23 18q10 0 10 -14q0 -4 -3 -15.5t-7 -34t-6 -46.5q-6 -53 -7 -117q0 -35 -16 -35q-12 0 -12 16q-4 45 -13 64q-14 43 -92 55q-31 4 -288 4q-12 0 -13 -16v-139q0 -309 8 -377q6 -43 18.5 -64.5t47.5 -27.5q53 -8 82 -8 q14 0 14 -14.5t-28 -14.5q-45 0 -98.5 1t-90.5 3l-37 2q-2 0 -35.5 -2t-75.5 -3t-67 -1q-29 0 -29 14.5t15 14.5q10 0 30.5 4t24.5 4q16 2 25.5 17t12.5 27.5t9 47.5q10 72 10 377v307q0 319 -4 375q-4 49 -17 69.5t-56 26.5q-29 4 -62 4q-14 0 -14 14.5zM1260 1296.5 q0 14.5 28 14.5q37 0 85 -1t83 -2t37 -1t41 1t86 2t72 1q29 0 28 -15q0 -12 -14 -12q-18 0 -59 -4q-39 -8 -51.5 -28.5t-16.5 -69.5q-2 -55 -2 -375v-311q0 -205 7 -287t30 -105q41 -41 239 -41q59 0 91 2.5t69 14.5t58 37q33 39 43 98q4 23 18 23q12 0 12 -27 q0 -80 -26 -174q-10 -31 -27.5 -39t-87.5 -8q-188 0 -313 6q-164 4 -197 4q-39 0 -74 -2q-74 -4 -104 -4q-29 0 -29 14.5t14 14.5q23 0 56 8q16 4 25.5 18t12.5 27.5t9 46.5q10 72 10 377v307q0 319 -4 375q-4 49 -17.5 69.5t-56.5 26.5q-29 4 -61 4q-14 0 -14 14.5z" />
<glyph unicode="&#xfb03;" horiz-adv-x="2988" d="M2377 1296.5q0 14.5 29 14.5q27 0 70 -1t76.5 -2t35.5 -1t36 1t77 2t68 1q29 0 28.5 -14.5t-14.5 -14.5q-25 0 -45 -4q-35 -8 -47.5 -27.5t-16.5 -68.5q-2 -55 -2 -375v-307q0 -305 8 -377q4 -31 8.5 -46.5t18.5 -28.5t39 -17q53 -8 82 -8q14 0 14 -14.5t-28 -14.5 q-45 0 -98.5 1t-90.5 3l-37 2q-2 0 -35.5 -2t-75.5 -3t-67 -1q-29 0 -29 14.5t15 14.5q23 0 55 8q37 8 47 92q10 90 10 377v307q0 319 -4 375q-6 84 -57 94q-31 6 -55 6q-15 0 -15 14.5zM1260 1296.5q0 14.5 29 14.5q37 0 85 -1t82.5 -2t36.5 -1h467q72 4 82 8q6 2 14.5 6 t10.5 4q12 0 12 -16q0 -4 -2 -14.5t-6 -29t-6 -38.5q0 -4 -3 -53.5t-5 -61.5q-4 -18 -17 -18q-14 0 -14 20q0 29 -17 66q-8 18 -41.5 34.5t-80.5 16.5l-295 4q-14 0 -15 -18v-476q0 -16 13 -16l245 2q57 0 82 2q63 6 84 31q14 18 23 18q10 0 10 -14q0 -4 -3 -15.5t-7 -34 t-6 -46.5q-6 -53 -7 -117q0 -35 -16 -35q-12 0 -12 16q-4 45 -13 64q-14 43 -92 55q-31 4 -288 4q-12 0 -13 -16v-139q0 -309 8 -377q6 -43 18.5 -64.5t47.5 -27.5q53 -8 82 -8q14 0 14 -14.5t-28 -14.5q-45 0 -98.5 1t-90.5 3l-37 2q-2 0 -35.5 -2t-75.5 -3t-67 -1 q-29 0 -29 14.5t15 14.5q10 0 30.5 4t24.5 4q16 2 25.5 17t12.5 27.5t9 47.5q10 72 10 377v307q0 319 -4 375q-4 49 -17 69.5t-56 26.5q-29 4 -62 4q-14 0 -14 14.5zM164 1296.5q0 14.5 29 14.5q37 0 85 -1t82.5 -2t36.5 -1h467q72 4 82 8q6 2 14.5 6t10.5 4q12 0 12 -16 q0 -4 -2 -14.5t-6 -29t-6 -38.5q0 -4 -3 -53.5t-5 -61.5q-4 -18 -17 -18q-14 0 -14 20q0 29 -17 66q-8 18 -41.5 34.5t-80.5 16.5l-295 4q-14 0 -15 -18v-476q0 -16 13 -16l245 2q57 0 82 2q63 6 84 31q14 18 23 18q10 0 10 -14q0 -4 -3 -15.5t-7 -34t-6 -46.5 q-6 -53 -7 -117q0 -35 -16 -35q-12 0 -12 16q-4 45 -13 64q-14 43 -92 55q-31 4 -288 4q-12 0 -13 -16v-139q0 -309 8 -377q6 -43 18.5 -64.5t47.5 -27.5q53 -8 82 -8q14 0 14 -14.5t-28 -14.5q-45 0 -98.5 1t-90.5 3l-37 2q-2 0 -35.5 -2t-75.5 -3t-67 -1q-29 0 -29 14.5 t15 14.5q10 0 30.5 4t24.5 4q16 2 25.5 17t12.5 27.5t9 47.5q10 72 10 377v307q0 319 -4 375q-4 49 -17 69.5t-56 26.5q-29 4 -62 4q-14 0 -14 14.5z" />
<glyph unicode="&#xfb04;" horiz-adv-x="3287" d="M2355 1296.5q0 14.5 29 14.5q37 0 85 -1t82.5 -2t36.5 -1t41 1t86 2t72 1q29 0 29 -15q0 -12 -15 -12q-18 0 -59 -4q-39 -8 -51.5 -28.5t-16.5 -69.5q-2 -55 -2 -375v-311q0 -205 7.5 -287t29.5 -105q41 -41 240 -41q59 0 91 2.5t68.5 14.5t57.5 37q33 39 43 98 q4 23 18 23q12 0 13 -27q0 -80 -27 -174q-10 -31 -27.5 -39t-87.5 -8q-186 0 -313 6q-164 4 -197 4q-39 0 -73 -2q-74 -4 -105 -4q-29 0 -29 14.5t15 14.5q23 0 55 8q16 4 25.5 18t12.5 27.5t9 46.5q10 72 10 377v307q0 319 -4 375q-4 49 -17 69.5t-56 26.5q-29 4 -62 4 q-14 0 -14 14.5zM1260 1296.5q0 14.5 29 14.5q37 0 85 -1t82.5 -2t36.5 -1h467q72 4 82 8q6 2 14.5 6t10.5 4q12 0 12 -16q0 -4 -2 -14.5t-6 -29t-6 -38.5q0 -4 -3 -53.5t-5 -61.5q-4 -18 -17 -18q-14 0 -14 20q0 29 -17 66q-8 18 -41.5 34.5t-80.5 16.5l-295 4 q-14 0 -15 -18v-476q0 -16 13 -16l245 2q57 0 82 2q63 6 84 31q14 18 23 18q10 0 10 -14q0 -4 -3 -15.5t-7 -34t-6 -46.5q-6 -53 -7 -117q0 -35 -16 -35q-12 0 -12 16q-4 45 -13 64q-14 43 -92 55q-31 4 -288 4q-12 0 -13 -16v-139q0 -309 8 -377q6 -43 18.5 -64.5 t47.5 -27.5q53 -8 82 -8q14 0 14 -14.5t-28 -14.5q-45 0 -98.5 1t-90.5 3l-37 2q-2 0 -35.5 -2t-75.5 -3t-67 -1q-29 0 -29 14.5t15 14.5q10 0 30.5 4t24.5 4q16 2 25.5 17t12.5 27.5t9 47.5q10 72 10 377v307q0 319 -4 375q-4 49 -17 69.5t-56 26.5q-29 4 -62 4 q-14 0 -14 14.5zM164 1296.5q0 14.5 29 14.5q37 0 85 -1t82.5 -2t36.5 -1h467q72 4 82 8q6 2 14.5 6t10.5 4q12 0 12 -16q0 -4 -2 -14.5t-6 -29t-6 -38.5q0 -4 -3 -53.5t-5 -61.5q-4 -18 -17 -18q-14 0 -14 20q0 29 -17 66q-8 18 -41.5 34.5t-80.5 16.5l-295 4 q-14 0 -15 -18v-476q0 -16 13 -16l245 2q57 0 82 2q63 6 84 31q14 18 23 18q10 0 10 -14q0 -4 -3 -15.5t-7 -34t-6 -46.5q-6 -53 -7 -117q0 -35 -16 -35q-12 0 -12 16q-4 45 -13 64q-14 43 -92 55q-31 4 -288 4q-12 0 -13 -16v-139q0 -309 8 -377q6 -43 18.5 -64.5 t47.5 -27.5q53 -8 82 -8q14 0 14 -14.5t-28 -14.5q-45 0 -98.5 1t-90.5 3l-37 2q-2 0 -35.5 -2t-75.5 -3t-67 -1q-29 0 -29 14.5t15 14.5q10 0 30.5 4t24.5 4q16 2 25.5 17t12.5 27.5t9 47.5q10 72 10 377v307q0 319 -4 375q-4 49 -17 69.5t-56 26.5q-29 4 -62 4 q-14 0 -14 14.5z" />
</font>
</defs>
</svg>
